<?xml version="1.0" standalone="no"?>
<!DOCTYPE svg PUBLIC "-//W3C//DTD SVG 1.1//EN" "http://www.w3.org/Graphics/SVG/1.1/DTD/svg11.dtd" >
<svg xmlns="http://www.w3.org/2000/svg">
<metadata>Generated by IcoMoon</metadata>
<defs>
<font id="icons" horiz-adv-x="1024">
<font-face units-per-em="1024" ascent="960" descent="-64" />
<missing-glyph horiz-adv-x="1024" />
<glyph unicode="&#x20;" horiz-adv-x="512" d="" />
<glyph unicode="&#xe600;" glyph-name="facebook" d="M738.080 621.408l-11.84-153.248h-156.96v-532.16h-198.432v532.16h-105.888v153.248h105.92v102.816c0 45.344 1.088 115.392 34.048 158.688 34.784 45.888 82.304 77.088 164.352 77.088 133.568 0 189.792-19.072 189.792-19.072l-26.496-156.768c0 0-44.096 12.736-85.184 12.736-41.216 0-78.080-14.72-78.080-55.936v-119.552h168.768z" />
<glyph unicode="&#xe601;" glyph-name="twitter" d="M919.168 656.864c0.48-8.96 0.64-18.080 0.64-27.264 0-277.6-211.296-597.696-597.792-597.696-118.656 0-229.088 34.816-322.016 94.368 16.416-2.016 33.12-2.912 50.144-2.912 98.336 0 188.928 33.568 260.832 89.888-91.936 1.632-169.504 62.432-196.224 145.984 12.8-2.528 25.984-3.776 39.52-3.776 19.232 0 37.696 2.528 55.392 7.392-96.16 19.232-168.64 104.096-168.64 205.984v2.624c28.416-15.712 60.8-25.216 95.296-26.24-56.384 37.664-93.472 101.984-93.472 174.784 0 38.528 10.368 74.56 28.416 105.728 103.648-127.2 258.464-210.752 433.056-219.552-3.616 15.328-5.408 31.328-5.408 47.808 0 116.032 94.016 210.080 210.016 210.080 60.48 0 115.040-25.472 153.376-66.304 47.904 9.376 92.736 26.88 133.344 50.944-15.584-49.088-48.864-90.176-92.288-116.16 42.496 5.056 83.008 16.32 120.64 33.056-28.064-42.112-63.68-79.136-104.832-108.736z" />
<glyph unicode="&#xe602;" glyph-name="youtube" d="M1024 631.008c0 0 0 176.48-176.576 176.48h-671.008c0 0-176.416 0-176.416-176.48v-366.080c0 0 0-176.384 176.416-176.384h671.040c0 0 176.576 0 176.576 176.384v366.080zM375.584 644.384l335.2-196.928-335.2-196.832v393.76z" />
<glyph unicode="&#xe603;" glyph-name="googleplus" d="M363.168 960c-142.048 0-275.872-107.808-275.872-232.512 0-127.52 96.864-230.432 241.44-230.432 10.112 0 19.872 0.256 29.472 0.992-9.408-17.984-16.096-38.24-16.096-59.296 0-35.392 18.976-64.16 43.104-87.648-18.24 0-35.872-0.544-54.944-0.544-176.128 0-311.68-112.064-311.68-228.48 0.032-114.368 148.672-186.080 324.608-186.080 200.768 0 311.744 113.888 311.744 228.448 0 91.872-27.104 146.944-110.944 206.080-28.544 20.384-83.392 69.696-83.392 98.688 0 33.984 9.664 50.688 60.896 90.656 52.416 41.024 89.472 98.656 89.472 165.632 0 79.808-35.52 157.504-102.208 183.168h100.608l70.88 51.328h-317.088zM1005.376 520.096h-123.424v123.456h-99.392v-123.424h-123.36v-99.392h123.328v-123.424h99.392v123.424h123.424v99.36zM374.656 529.408c-81.696 2.528-159.328 91.456-173.408 198.72s40.672 189.408 122.368 186.944c81.6-2.432 159.328-88.48 173.408-195.84 14.080-107.232-40.704-192.256-122.368-189.824zM569.472 184.32c2.592-10.656 3.968-21.6 3.968-32.672 0-92.64-59.616-164.928-230.784-164.928-121.728 0-209.632 76.992-209.632 169.632 0 90.72 109.088 166.176 230.784 164.8 28.352-0.288 54.816-4.864 78.88-12.672 65.984-45.92 113.408-71.84 126.784-124.16z" />
<glyph unicode="&#xe604;" glyph-name="linkedin" d="M225.376-22.080h-199.52v638.656h199.52v-638.656zM120.48 696.512h-1.472c-72.192 0-119.008 48.8-119.008 110.656 0 63.072 48.256 110.912 121.92 110.912s118.944-47.712 120.384-110.752c-0.032-61.888-46.752-110.816-121.824-110.816zM1024-22.080h-226.464v330.368c0 86.592-35.232 145.696-113.12 145.696-59.648 0-92.672-39.84-108.032-78.24-5.792-13.76-4.864-33.088-4.864-52.256v-345.568h-224.32c0 0 2.976 585.44 0 638.656h224.288v-100.256c13.184 43.872 84.896 106.4 199.136 106.4 141.888 0 253.376-91.904 253.376-289.664v-355.136z" />
<glyph unicode="&#xe605;" glyph-name="arrow-right" d="M0 448.672c0-22.528 18.432-40.96 40.96-40.96h834.912l-299.744-267.552c-8.832-8.16-13.632-19.136-13.632-30.752 0-9.536 3.456-19.136 10.272-27.264 15.040-17.056 40.896-18.432 58.016-3.392l379.584 339.2c8.832 7.456 13.632 19.104 13.632 30.72 0 3.392-0.672 6.112-1.408 8.896-2.016 10.208-8.192 18.368-16.416 24.544l-375.392 335.168c-17.088 15.040-42.976 13.664-58.016-3.392-15.008-17.088-13.664-43.040 3.36-58.048l299.040-266.208h-834.208c-22.528 0-40.96-18.432-40.96-40.96z" />
<glyph unicode="&#xe606;" glyph-name="arrow-down" d="M512.672 960c-22.528 0-40.96-18.432-40.96-40.96v-834.912l-267.552 299.744c-8.16 8.832-19.136 13.632-30.752 13.632-9.536 0-19.136-3.456-27.264-10.272-17.056-15.040-18.432-40.896-3.392-58.016l339.2-379.584c7.456-8.832 19.104-13.632 30.72-13.632 3.392 0 6.112 0.672 8.896 1.408 10.208 2.016 18.368 8.192 24.544 16.416l335.168 375.392c15.040 17.088 13.664 42.976-3.392 58.016-17.088 15.008-43.040 13.664-58.048-3.36l-266.208-299.040v834.208c0 22.528-18.432 40.96-40.96 40.96z" />
<glyph unicode="&#xe607;" glyph-name="arrow-left" d="M1024 447.328c0 22.528-18.432 40.96-40.96 40.96h-834.912l299.744 267.552c8.832 8.16 13.632 19.136 13.632 30.752 0 9.536-3.456 19.136-10.272 27.264-15.040 17.056-40.896 18.432-58.016 3.392l-379.584-339.2c-8.832-7.456-13.632-19.104-13.632-30.72 0-3.392 0.672-6.112 1.408-8.896 2.016-10.208 8.192-18.368 16.416-24.544l375.392-335.168c17.088-15.040 42.976-13.664 58.016 3.392 15.008 17.088 13.664 43.040-3.36 58.048l-299.040 266.208h834.208c22.528 0 40.96 18.432 40.96 40.96z" />
<glyph unicode="&#xe608;" glyph-name="arrow-up" d="M511.328-64c22.528 0 40.96 18.432 40.96 40.96v834.912l267.552-299.744c8.16-8.832 19.136-13.632 30.752-13.632 9.536 0 19.136 3.456 27.264 10.272 17.056 15.040 18.432 40.896 3.392 58.016l-339.2 379.584c-7.456 8.832-19.104 13.632-30.72 13.632-3.392 0-6.112-0.672-8.896-1.408-10.208-2.016-18.368-8.192-24.544-16.416l-335.168-375.392c-15.040-17.088-13.664-42.976 3.392-58.016 17.088-15.008 43.040-13.664 58.048 3.36l266.208 299.040v-834.208c0-22.528 18.432-40.96 40.96-40.96z" />
<glyph unicode="&#xe609;" glyph-name="lens" d="M945.216-64c-20.896 0-41.28 8.608-55.328 23.392l-211.136 210.496c-72-49.984-158.144-76.352-245.536-76.352-239.328 0.032-433.216 193.856-433.216 433.248 0 239.328 193.888 433.216 433.216 433.216 239.36 0 433.216-193.888 433.216-433.216 0-87.36-26.464-173.536-76.288-245.536l211.040-211.136c14.208-14.048 22.816-34.432 22.816-55.328 0-43.136-35.648-78.784-78.784-78.784zM433.216 802.464c-151.968 0-275.68-123.712-275.68-275.68 0-152 123.712-275.712 275.68-275.712 151.936 0 275.712 123.712 275.712 275.712 0 151.968-123.776 275.68-275.712 275.68z" />
<glyph unicode="&#xe60a;" glyph-name="phone" d="M728.8-45.344c-25.76-19.232-64.672-19.072-95.712-18.496-40.384 0.96-77.536 9.216-112.48 29.376-48.544 28.032-80.992 73.152-116 115.040-25.248 29.856-47.872 61.76-66.368 96.096-57.088 106.048-102.304 274.88-105.952 395.36-1.152 38.944 2.56 77.92 9.472 116.384 9.376 53.76 14.912 109.056 42.944 157.6 20.192 34.976 48.224 60.608 82.688 81.76 26.656 15.936 60.192 35.552 92.128 31.776 21.76-2.144 63.168-14.88 81.952-25.728 3.648-2.144 7.264-4.224 10.016-7.904 8.864-9.984 5.6-42.208 4.8-55.712-0.512-39.36-1.792-79.008-1.472-118.208 0.576-18.368 6.528-44.096-2.816-60.352-18.368-31.872-139.712-23.712-155.968-51.936-8.128-14.112-5.664-39.936-5.6-56.672-2.112-125.504 25.664-229.248 90.304-336.864 8.32-14.496 19.040-38.112 33.12-46.304 28.192-16.256 129.248 51.424 161.088 32.992 16.224-9.344 23.84-34.72 32.608-50.848 19.296-34.080 40.224-67.712 60.352-101.696 7.456-11.232 26.4-37.504 23.744-50.528-0.576-4.576-2.656-8.192-4.8-11.84-10.848-18.784-40.352-50.56-58.048-63.296z" />
<glyph unicode="&#xe60b;" glyph-name="phone-outline" d="M67.776 870.56c-1.952-1.984-3.936-4.576-5.92-7.232l-22.368-36.16c-0.672-1.312-1.984-3.36-2.624-4.608-24.352-54.592-36.864-115.872-36.864-177.056 0-105.344 36.864-199.36 103.328-265.888l341.536-341.504c105.984-105.984 287.648-132.288 441.568-63.872 1.984 0.64 3.936 2.016 5.92 3.328l34.944 23.008c1.984 1.344 3.936 3.36 5.92 4.64l61.184 61.216c19.072 19.040 29.6 44.736 29.6 71.040 0 24.352-9.856 48.064-26.976 65.184l-177.664 177.664c-37.568 37.472-98.752 36.192-136.896-1.984l-69.76-69.728-237.6 237.504 71.072 71.104c19.104 17.12 28.96 41.472 28.96 67.776 0 24.992-9.856 48.704-27.616 67.104l-177.696 177.664c-17.792 17.824-42.784 28.352-68.448 29.696-26.976 1.28-53.312-8.64-71.744-27.008l-61.856-61.888zM213.888 873.92l177.696-177.76c6.592-6.528 5.92-17.12-1.312-24.352l-98.752-98.656c-15.136-15.168-15.136-40.192 0-56l292.896-292.8c7.232-7.232 17.76-11.84 27.616-11.84s20.384 3.936 27.648 11.84l98.656 97.408c7.264 7.232 19.104 8.576 25.696 1.984l177.696-177.696c2.656-2.656 3.936-5.248 3.936-9.184 0-5.344-2.592-11.232-6.592-15.168l-57.92-57.92-28.96-19.072c-144.704-62.528-282.944-19.168-350.112 48.672l-342.816 341.536c-51.968 52-80.288 126.368-80.288 210.592 0 49.344 9.856 98.72 28.96 142.176l18.432 30.24 58.56 58.592c3.936 3.936 9.856 3.936 12.48 3.936 6.592-0.64 12.544-3.296 16.48-6.528z" />
<glyph unicode="&#xe60c;" glyph-name="mail-outline" d="M1024 827.008c0 21.984-18.016 39.968-39.808 39.968h-944.352c-21.984 0-39.84-17.984-39.84-39.968v-758.176c0-21.824 17.856-39.808 39.84-39.808h944.352c21.824 0 39.808 18.016 39.808 39.808v758.176zM79.776 108.928v472.736l400.992-345.056c7.36-6.688 15.968-9.408 25.248-9.408 9.408 0 19.36 3.392 27.296 9.408l411.072 343.712v-471.36h-864.608zM944.352 787.2v-103.104c-6.816-0.672-3.296-1.376-4.096-1.376l-433.568-363.744-425.664 365.792c-0.544 0.672-1.248 1.376-1.248 2.048v100.384h864.576z" />
<glyph unicode="&#xe60d;" glyph-name="pin-outline" d="M512 717.408c-88.896 0-160.992-72.064-160.992-160.992s72.096-160.928 160.992-160.928c88.832 0 160.992 72 160.992 160.928s-72.16 160.992-160.992 160.992zM512 467.488c-48.672 0-88.896 39.648-88.896 88.928s39.648 88.928 88.896 88.928 88.832-39.648 88.832-88.896-40.16-88.96-88.832-88.96zM779.232 839.936c-48.576 54.656-136.928 120.064-278.016 120.064-231.872 0-353.184-188.576-353.184-374.752 0-243.84 333.344-620.416 347.744-636.64 6.624-7.84 16.224-12.608 26.432-12.608h0.608c10.208 0 19.232 4.768 26.4 12 3.616 3.552 82.304 88.896 162.24 208.448 109.248 163.328 164.48 308.128 164.48 429.376 0 92.48-35.328 184.992-96.704 254.112zM523.424 28.512c-78.080 93.664-302.688 377.824-302.688 557.344 0 145.376 88.256 302.176 281.088 302.176 196.384 0 302.144-155.584 302.144-302.176-0.032-211.424-206.048-470.304-280.544-557.344z" />
<glyph unicode="&#xe60e;" glyph-name="news" d="M176.672-40.064h717.408c5.376 0 10.784 1.216 15.584 3.584 4.768 2.432 114.336 56.928 114.336 166.496v560.512c0 19.744-16.16 35.904-35.936 35.904h-125.76v173.664c0 19.776-16.16 35.936-35.936 35.936h-790.432c-19.776 0-35.936-16.16-35.936-35.936v-762.304c0-2.336 0-5.376 0.608-7.744 1.824-7.2 39.552-170.112 176.064-170.112zM71.872 864.16h718.624v-676.672c0-19.712 16.16-35.904 35.872-35.904 19.776 0 35.936 16.192 35.936 35.904v467.104h89.856v-524.576c0-52.736-49.088-87.424-67.648-98.176h-707.84c-70.656 0-99.392 91.584-104.768 110.72v721.6zM419.168 708.48c0 19.744-16.16 35.936-35.904 35.936h-167.68c-19.776 0-35.936-16.192-35.936-35.936v-191.616c0-19.776 16.16-35.936 35.936-35.936h167.68c19.744 0 35.904 16.16 35.904 35.936v191.616zM251.552 672.544h95.776v-119.776h-95.776v119.776zM203.616 145.6h467.104c19.712 0 35.904 16.192 35.904 35.904 0 19.744-16.192 35.904-35.904 35.904h-467.104c-19.776 0-35.936-16.16-35.936-35.904 0-19.712 16.16-35.904 35.936-35.904zM209.6 319.296h455.104c19.712 0 35.904 16.16 35.904 35.904 0 19.712-16.192 35.872-35.904 35.872h-455.104c-19.776 0-35.936-16.16-35.936-35.872 0-19.776 16.16-35.904 35.936-35.904zM532.96 666.56h137.76c19.712 0 35.904 16.16 35.904 35.936s-16.192 35.936-35.904 35.936h-137.76c-19.744 0-35.904-16.16-35.904-35.936s16.16-35.936 35.904-35.936zM532.96 492.928h137.76c19.712 0 35.904 16.16 35.904 35.936 0 19.744-16.192 35.936-35.904 35.936h-137.76c-19.744 0-35.904-16.16-35.904-35.936s16.16-35.936 35.904-35.936z" />
<glyph unicode="&#xe60f;" glyph-name="calendar" d="M982.784 865.824h-105.92c-19.392 0-35.328-15.904-35.328-35.296s15.936-35.328 35.328-35.328h70.624v-788.576h-870.976v788.576h94.112c19.456 0 35.328 15.936 35.328 35.328s-15.872 35.296-35.296 35.296h-129.44c-19.424 0-35.296-15.904-35.296-35.296v-859.2c0-19.488 15.84-35.328 35.296-35.328h941.568c19.456 0 35.328 15.84 35.328 35.328v859.2c-0.032 19.392-15.872 35.296-35.328 35.296zM559.040 865.824h-100c-19.392 0-35.328-15.904-35.328-35.296s15.936-35.328 35.328-35.328h100c19.456 0 35.328 15.936 35.328 35.328s-15.872 35.296-35.328 35.296zM300.128 230.208h-82.368c-19.456 0-35.328-15.84-35.328-35.328v-58.88c0-19.36 15.872-35.296 35.328-35.296h82.368c19.392 0 35.328 15.904 35.328 35.296v58.88c0 19.488-15.936 35.328-35.328 35.328zM553.216 230.208h-88.288c-19.424 0-35.328-15.84-35.328-35.328v-58.88c0-19.36 15.872-35.296 35.328-35.296h88.288c19.36 0 35.296 15.904 35.296 35.296v58.88c0 19.488-15.904 35.328-35.296 35.328zM335.456 389.12c0 19.392-15.936 35.328-35.328 35.328h-82.368c-19.456 0-35.328-15.904-35.328-35.328v-58.816c0-19.52 15.872-35.36 35.328-35.36h82.368c19.392 0 35.328 15.84 35.328 35.36v58.816zM588.512 389.12c0 19.392-15.904 35.328-35.296 35.328h-88.288c-19.424 0-35.328-15.904-35.328-35.328v-58.816c0-19.52 15.872-35.36 35.328-35.36h88.288c19.36 0 35.296 15.84 35.296 35.36v58.816zM800.384 424.448h-82.432c-19.36 0-35.328-15.904-35.328-35.328v-58.816c0-19.52 15.936-35.36 35.328-35.36h82.432c19.392 0 35.328 15.84 35.328 35.36v58.816c-0.032 19.424-15.936 35.328-35.328 35.328zM182.464 589.248v-58.88c0-19.392 15.872-35.328 35.328-35.328h82.368c19.392 0 35.328 15.936 35.328 35.328v58.88c0 19.424-15.936 35.296-35.328 35.296h-82.4c-19.456 0-35.296-15.872-35.296-35.296zM588.512 589.248c0 19.424-15.904 35.296-35.296 35.296h-88.288c-19.424 0-35.328-15.872-35.328-35.296v-58.88c0-19.392 15.872-35.328 35.328-35.328h88.288c19.36 0 35.296 15.936 35.296 35.328v58.88zM835.68 589.248c0 19.424-15.904 35.296-35.328 35.296h-82.432c-19.36 0-35.328-15.872-35.328-35.296v-58.88c0-19.392 15.936-35.328 35.328-35.328h82.432c19.392 0 35.328 15.936 35.328 35.328v58.88zM323.68 724.576c19.392 0 35.328 15.936 35.328 35.328v164.8c0 19.392-15.936 35.296-35.328 35.296h-35.296c-19.456 0-35.296-15.904-35.296-35.328v-164.8c0-19.392 15.84-35.328 35.328-35.328h35.264zM729.792 960h-35.328c-19.456 0-35.328-15.904-35.328-35.328v-164.8c0-19.392 15.84-35.328 35.328-35.328h35.328c19.392 0 35.328 15.936 35.328 35.328v164.8c-0.032 19.424-15.936 35.328-35.328 35.328z" />
<glyph unicode="&#xe610;" glyph-name="book" d="M1001.536 742.112h-39.712v47.776c0 9.376-5.824 17.792-14.624 21.088-192.256 72-328.832 86.752-406.016 43.872-12.512-6.976-21.952-14.72-29.184-22.272-7.232 7.552-16.704 15.296-29.184 22.24-77.216 42.88-213.824 28.128-406.048-43.872-8.768-3.296-14.592-11.68-14.592-21.056v-47.776h-39.712c-12.416 0-22.464-10.080-22.464-22.496v-636.64c0-12.448 10.048-22.464 22.464-22.464h404.032v-20.768c0-12.416 10.048-22.464 22.464-22.464h126.016c12.416 0 22.496 10.048 22.496 22.464v20.768h404.032c12.448 0 22.464 10.016 22.464 22.464v636.64c0.032 12.416-9.984 22.496-22.432 22.496zM534.496 786.592c1.824 4.8 8.896 18.784 30.976 30.24 36.416 18.912 130.144 37.984 351.328-42.592v-572.384c-176.288 62.304-302.592 73.44-375.648 32.864-2.368-1.312-4.544-2.656-6.656-3.968v555.84zM107.168 774.24c221.248 80.576 314.944 61.504 351.36 42.592 22.080-11.488 29.12-25.472 31.008-30.272v-555.808c-2.144 1.312-4.352 2.656-6.688 3.936-73.024 40.608-199.424 29.472-375.68-32.832v572.384zM426.528 109.408v-3.936h-381.6v591.648h17.28v-527.328c0-12.416 10.048-22.464 22.496-22.464 2.848 0 5.6 0.544 8.096 1.504v0c231.52 86.656 328.544 67.232 365.76 47.904 13.056-6.752 20.8-14.432 25.376-20.544-33.408-9.664-57.408-35.904-57.408-66.784zM552.544 62.208h-81.056v47.2c0 12.192 16.672 25.728 40.544 25.728s40.512-13.536 40.512-25.728v-47.2zM979.040 105.472h-381.536v3.936c0 30.88-24.064 57.12-57.472 66.752 4.608 6.112 12.384 13.824 25.44 20.576 37.216 19.328 134.144 38.752 365.6-47.872 0.128-0.032 4.576-1.568 8.256-1.568 12.448 0.064 22.496 10.080 22.496 22.496v527.328h17.216v-591.648z" />
<glyph unicode="&#xe611;" glyph-name="heartbeat" d="M543.776 48.608c9.76-6.4 19.744-6.048 28.352-0.672 40.416 25.568 395.616 255.328 437.824 446.272 9.376 28.064 14.048 56.544 14.048 85.184 0 99.776-54.4 191.744-142.016 240-38.816 21.44-83.776 32.768-130.144 32.768-71.136 0-140.224-26.656-189.536-73.12l-3.68-3.456-3.68 3.456c-49.408 46.464-118.592 73.12-189.76 73.12-46.336 0-91.328-11.328-130.016-32.736-87.552-48.256-141.952-140.16-141.952-239.936 0-28.704 4.512-56.896 12.96-81.536 3.072-13.504 7.808-27.808 14.688-44.224l3.168-7.456h-98.624c-14.016-0.064-25.408-11.488-25.408-25.504s11.392-25.44 25.44-25.44h359.744c10.176 0 19.36 5.984 23.36 15.264l39.328 90.56 45.344-191.040c2.432-10.016 10.624-17.6 20.8-19.264 1.216-0.16 2.56-0.288 3.968-0.288 8.736 0 17.024 4.672 21.632 12.256l90.272 148.288h97.472c14.016 0 25.408 11.424 25.408 25.44 0 14.048-11.36 25.472-25.408 25.472h-111.776c-8.8 0-17.12-4.672-21.728-12.192l-65.696-107.776-48.576 205.216c-2.432 10.72-11.456 18.56-22.432 19.52-0.896 0.064-1.728 0.128-2.56 0.128-9.76 0-19.008-6.176-23.008-15.328l-63.264-145.344h-186.752l-1.536 2.816c-12.832 23.84-20.768 43.648-24.992 62.304-7.328 22.24-11.104 45.312-11.104 68.128 0 81.216 44.32 156.064 115.68 195.328 31.392 17.344 67.744 26.56 105.12 26.56 67.584 0 132.672-29.792 174.112-79.648 9.216-10.976 30.144-11.008 39.264 0 41.376 49.888 106.432 79.68 174.016 79.68 37.44 0 73.824-9.216 105.28-26.656 71.2-39.232 115.392-114.080 115.392-195.392 0-23.84-3.776-46.592-11.968-71.552-29.728-134.496-264.96-318.688-399.232-406.24l-3.008-1.952-2.944 1.984c-40.096 26.592-119.072 81.152-197.216 147.936-4.576 3.84-10.432 5.984-16.448 5.984-7.456 0-14.56-3.264-19.456-8.864-9.12-10.816-7.84-26.592 2.912-35.872 96.32-82.432 191.456-144.992 218.336-162.176z" />
<glyph unicode="&#xe612;" glyph-name="kit" d="M940.384 740.672h-261.888v71.616c0 46.080-37.536 83.616-83.648 83.616h-171.872c-46.112 0-83.648-37.504-83.648-83.616v-71.616h-255.712c-46.112 0-83.616-37.504-83.616-83.616v-573.312c0-46.112 37.504-83.648 83.616-83.648h856.736c46.112 0 83.616 37.536 83.616 83.648v573.312c0.032 46.112-37.472 83.616-83.584 83.616zM384.928 812.288c0 20.928 17.056 37.984 38.016 37.984h171.872c20.96 0 38.016-17.056 38.016-37.984v-71.616h-247.936v71.616h0.032zM978.4 83.744c0-20.96-17.088-38.016-38.016-38.016h-856.768c-20.96 0-38.016 17.024-38.016 38.016v573.312c0 20.96 17.056 38.016 38.016 38.016h856.736c20.928 0 38.016-17.056 38.016-38.016v-573.312zM682.72 392.096h-147.936v147.936c0 12.608-10.208 22.784-22.784 22.784-12.608 0-22.816-10.208-22.816-22.784v-147.936h-147.872c-12.608 0-22.784-10.208-22.784-22.816s10.208-22.784 22.784-22.784h147.872v-147.872c0-12.608 10.208-22.816 22.816-22.816 12.576 0 22.784 10.208 22.784 22.816v147.872h147.936c12.576 0 22.816 10.176 22.816 22.784s-10.24 22.816-22.816 22.816zM150.048 761.344h84.8c12.608 0 22.816 10.208 22.816 22.784 0 12.608-10.208 22.816-22.816 22.816h-84.8c-12.608 0-22.784-10.208-22.784-22.816 0-12.544 10.208-22.784 22.784-22.784zM789.12 761.344h84.8c12.608 0 22.816 10.208 22.816 22.784 0 12.608-10.208 22.816-22.816 22.816h-84.8c-12.608 0-22.816-10.208-22.816-22.816 0-12.544 10.24-22.784 22.816-22.784z" />
<glyph unicode="&#xe613;" glyph-name="microscope" d="M821.76-14.24h-123.52c140.032 59.488 238.56 198.528 238.56 360.032 0 201.696-153.504 368.128-349.856 388.8l62.88 96.288c7.488 11.36 4.256 26.848-7.168 34.368l-137.856 90.656c-5.568 3.616-12.16 4.864-18.72 3.616-6.464-1.376-12.128-5.184-15.712-10.784l-155.328-237.824c-7.52-11.456-4.256-26.88 7.168-34.4l13.728-9.024-37.312-57.056c-7.488-11.424-4.288-26.784 7.168-34.304l68.96-45.408c4.064-2.688 8.832-4.064 13.664-4.064 1.664 0 3.36 0.16 5.088 0.48 6.464 1.376 12.096 5.216 15.68 10.784l37.248 57.024 13.6-8.992c4.064-2.72 8.832-4.064 13.664-4.064 1.696 0 3.36 0.128 5.088 0.512 6.464 1.344 12.128 5.184 15.744 10.784l61.12 93.536c183.456-5.216 331.424-155.936 331.424-340.736 0-188.224-153.056-341.344-341.216-341.344-174.048 0-317.792 131.008-338.496 299.424l45.024-29.728c4.192-2.784 8.96-4.096 13.632-4.096 8.096 0 16 3.904 20.8 11.232 7.584 11.36 4.384 26.88-7.104 34.368l-154.016 101.408c-11.424 7.52-26.912 4.384-34.4-7.072-7.488-11.52-4.384-26.88 7.104-34.432l56.736-37.376c3.008-158.368 100.256-294.016 238.208-352.64h-127.328c-13.728 0-24.864-11.2-24.864-24.864 0-13.76 11.136-24.864 24.864-24.864h555.808c13.728 0 24.864 11.168 24.864 24.864 0.032 13.696-11.136 24.896-24.928 24.896zM381.184 585.92l-27.392 17.984 23.68 36.224 27.392-17.952-23.68-36.256zM466.432 641.152l-96.32 63.328 128.192 196.224 96.288-63.328-128.16-196.224z" />
<glyph unicode="&#xe614;" glyph-name="saline" d="M349.344 324.832c0-12-9.824-21.888-21.952-21.888-80.096 0-145.28 65.152-145.28 145.312 0 12.064 9.792 21.888 21.888 21.888s21.92-9.824 21.92-21.888c0-56 45.536-101.536 101.472-101.536 12.096 0.032 21.952-9.664 21.952-21.888zM907.808 938.080v-980.192c0-12.064-9.856-21.92-21.92-21.92-12.128 0.032-21.888 9.888-21.888 21.952v958.272h-295.68v-51.552h26.784c29.76 0 53.952-24.224 53.952-54.016v-47.392h42.144c52.576 0 95.296-42.688 95.296-95.168v-372.736c0-52.512-42.72-95.264-95.296-95.264h-103.104c-0.896-4.672-3.232-9.216-7.296-12.576-7.296-6.016-25.76-25.664-25.312-45.472 0.288-12.64 8.512-25.12 24.608-37.088 17.984-13.568 37.824-39.424 40.16-72.032 2.016-29.952-10.624-58.848-37.76-86.016-4.288-4.352-10.016-6.368-15.52-6.368-5.632 0-11.232 2.144-15.52 6.368-8.48 8.544-8.48 22.464 0 31.008 17.824 17.728 26.24 35.328 25.056 52.032-1.344 19.2-14.912 34.080-22.72 40.032-27.424 20.576-41.632 44.64-42.080 71.424-0.448 24.224 10.496 44.544 21.312 58.784h-92.192c-31.264 0-59.296 15.744-77.056 40.768-11.84-2.080-23.968-3.648-36.448-3.648-116.384 0-211.104 94.752-211.104 211.104 0 108.096 173.28 367.040 192.96 396.192 8.224 12 28.128 12 36.288 0 6.496-9.568 29.696-44.288 57.792-90.080 11.872 5.184 24.352 8.736 37.536 8.736h21.184v47.392c0 29.792 24.224 53.984 53.984 53.984h8.384v73.472c-0.064 12.096 9.76 21.92 21.856 21.92h339.488c12.352 0 22.112-9.824 22.112-21.92zM327.392 280.992c92.288 0 167.328 75.104 167.328 167.36 0 71.968-107.936 252.896-167.328 344.256-59.328-91.328-167.264-272.32-167.264-344.256-0.064-92.384 75.040-167.36 167.264-167.36zM742.752 550.944h-231.296c16.384-39.616 27.104-75.712 27.104-102.592 0-12.32-1.664-24.224-3.68-35.968h207.84v56.64h-148.8c-12.032 0-21.92 9.824-21.92 21.92 0 12.064 9.888 21.888 21.92 21.888h148.8v38.112zM742.752 295.328v73.248h-220.096c-20.992-51.168-61.376-92.352-112.128-114.144 8.64-6.4 19.136-10.528 30.4-10.528h250.432c28.288-0.032 51.392 23.072 51.392 51.424zM691.328 719.36h-250.432c-5.216 0-10.272-0.768-15.168-2.24 22.624-38.336 46.112-80.96 65.984-122.4h251.040v73.216c0 28.352-23.104 51.424-51.424 51.424zM595.104 820.768h-79.072c-5.632 0-10.176-4.544-10.176-10.208v-47.392h99.488v47.424c0 5.696-4.608 10.176-10.24 10.176z" />
<glyph unicode="&#xe615;" glyph-name="sissors" d="M872.896 162.272c-26.112 55.008-82.304 90.496-143.2 90.496-23.552 0-46.336-5.152-67.808-15.328-4.352-2.080-8.64-4.384-12.768-6.848l-101.92 192.064 260.992 491.84c8.032 15.136 2.24 34.016-12.896 42.016-14.656 7.808-34.272 1.728-42.016-12.896l-241.28-454.592-241.28 454.624c-7.776 14.656-27.328 20.736-42.048 12.896-7.328-3.872-12.704-10.4-15.168-18.336s-1.632-16.384 2.272-23.68l261.024-491.84-101.984-192.096c-24.448 14.528-52.16 22.176-80.544 22.176-52.704 0-101.792-26.048-131.264-69.664-23.68-35.008-32.288-77.12-24.288-118.72 8.032-41.6 31.744-77.504 66.688-101.152 26.368-17.824 56.992-27.232 88.672-27.232 52.672 0 101.76 26.016 131.232 69.632 37.408 55.296 36.096 127.808-2.976 181.728l89.664 168.992 89.6-168.896c-8.8-12.224-15.84-25.6-20.96-39.904-14.176-39.808-12.064-82.816 6.080-121.024 26.112-55.008 82.304-90.528 143.2-90.528 23.552 0 46.368 5.12 67.808 15.328 78.88 37.376 112.576 132.064 75.168 210.944zM729.92-1.824c-36.96 0-71.104 21.6-86.976 55.008-11.008 23.168-12.352 49.248-3.712 73.472 8.672 24.192 26.176 43.584 49.376 54.624 13.056 6.144 26.912 9.28 41.12 9.28 36.96 0 71.136-21.568 86.976-54.976 22.72-47.904 2.24-105.376-45.632-128.096-13.056-6.144-26.912-9.312-41.152-9.312zM294.272 190.56c19.2 0 37.792-5.76 53.76-16.576 21.216-14.336 35.584-36.192 40.48-61.44 4.864-25.248-0.352-50.848-14.72-72.096-17.888-26.464-47.712-42.272-79.776-42.272-19.168 0-37.76 5.76-53.76 16.544-21.248 14.368-35.616 36.192-40.48 61.44-4.896 25.248 0.352 50.848 14.688 72.064 17.984 26.496 47.808 42.336 79.808 42.336z" />
<glyph unicode="&#xe616;" glyph-name="stethoscope" d="M944.32 131.904c0.416 2.016 1.152 3.648 1.152 5.792v139.104c0 112.16-85.44 203.392-190.432 203.392-105.056 0-190.432-91.264-190.432-203.392l0.096-121.824c0-82.432-61.344-149.536-136.672-149.536s-136.64 67.104-136.64 149.536v282.688c133.664 10.56 239.648 121.472 239.648 257.856v237.6c0 14.816-12.064 26.88-26.912 26.88h-85.12c-14.816 0-26.88-12.064-26.88-26.88s12.064-26.88 26.88-26.88h58.24v-210.656c0-113.632-92.448-206.112-206.112-206.112-113.696 0-206.144 92.512-206.144 206.112v210.624h62.752c14.816 0 26.88 12.064 26.88 26.88s-12.032 26.912-26.912 26.912h-89.632c-14.816 0-26.88-12.064-26.88-26.88v-237.536c0-131.808 98.976-239.84 226.4-256.512v-284.064c0-112.16 85.408-203.328 190.432-203.328 105.056 0 190.464 91.168 190.464 203.328l-0.064 121.824c0 82.464 61.312 149.6 136.64 149.6 75.296 0 136.672-67.136 136.672-149.6v-139.104c0-0.864 0.288-1.28 0.384-2.016-46.080-9.216-80.928-50.080-80.928-98.848 0-55.584 45.152-100.832 100.768-100.832 55.552 0 100.864 45.248 100.864 100.832-0.064 44.192-28.832 81.504-68.512 95.040zM911.968-10.176c-25.888 0-47.008 21.184-47.008 47.040s21.12 47.072 47.008 47.072c25.92 0 47.072-21.216 47.072-47.072s-21.088-47.040-47.072-47.040z" />
<glyph unicode="&#xe617;" glyph-name="syringer" d="M768.032 746.656h-192v170.688h64c11.776 0 21.344 9.536 21.344 21.344s-9.568 21.312-21.344 21.312h-256c-11.808 0-21.344-9.536-21.344-21.344s9.536-21.344 21.344-21.344h64.032v-170.656h-192.064c-11.808 0-21.344-9.536-21.344-21.344 0.032-11.776 9.568-21.312 21.344-21.312h106.72v-405.344c0-105.408 50.624-178.912 128-190.272v-151.072c0-11.776 9.536-21.344 21.344-21.344s21.312 9.568 21.312 21.344v151.072c77.376 11.36 128.032 84.864 128.032 190.272v405.344h106.624c11.744 0 21.312 9.536 21.312 21.344 0 11.776-9.568 21.312-21.312 21.312zM490.72 917.344h42.656v-170.656h-42.656v170.656zM618.72 298.688c0-74.336-32.992-149.344-106.656-149.344-78.72 0-106.688 80.448-106.688 149.344v106.656h42.656c11.776 0 21.344 9.536 21.344 21.344 0 11.776-9.568 21.344-21.344 21.344h-42.656v42.656h42.656c11.776 0 21.344 9.536 21.344 21.344s-9.568 21.344-21.344 21.344h-42.656v42.624h42.656c11.776 0 21.344 9.536 21.344 21.344 0 11.776-9.568 21.344-21.344 21.344h-42.656v85.312h213.344v-405.312z" />
<glyph unicode="&#xe618;" glyph-name="arrow-right2" d="M162.624-45.44c9.248-12.384 23.168-18.56 37.088-18.56 9.28 0 19.36 3.104 27.808 9.28l624.544 466.048c11.552 8.448 18.528 22.368 18.528 37.088 0 14.656-6.976 28.608-18.528 37.088l-624.544 465.28c-20.832 15.488-49.472 10.816-64.896-9.248-15.456-20.864-10.816-49.44 9.28-64.928l575.072-428.928-575.104-428.96c-20.064-14.72-24.704-44.096-9.248-64.16z" />
<glyph unicode="&#xe619;" glyph-name="arrow-down2" d="M18.56 797.376c-12.384-9.248-18.56-23.168-18.56-37.088 0-9.28 3.104-19.36 9.28-27.808l466.048-624.544c8.448-11.552 22.368-18.528 37.088-18.528 14.656 0 28.608 6.976 37.088 18.528l465.28 624.544c15.488 20.832 10.816 49.472-9.248 64.896-20.864 15.456-49.44 10.816-64.928-9.28l-428.928-575.072-428.96 575.104c-14.72 20.064-44.096 24.704-64.16 9.248z" />
<glyph unicode="&#xe61a;" glyph-name="arrow-left2" d="M861.376 941.44c-9.248 12.384-23.168 18.56-37.088 18.56-9.28 0-19.36-3.104-27.808-9.28l-624.544-466.048c-11.552-8.448-18.528-22.368-18.528-37.088 0-14.656 6.976-28.608 18.528-37.088l624.544-465.28c20.832-15.488 49.472-10.816 64.896 9.248 15.456 20.864 10.816 49.44-9.28 64.928l-575.072 428.928 575.104 428.96c20.064 14.72 24.704 44.096 9.248 64.16z" />
<glyph unicode="&#xe61b;" glyph-name="arrow-up2" d="M1005.44 98.624c12.384 9.248 18.56 23.168 18.56 37.088 0 9.28-3.104 19.36-9.28 27.808l-466.048 624.544c-8.448 11.552-22.368 18.528-37.088 18.528-14.656 0-28.608-6.976-37.088-18.528l-465.28-624.544c-15.488-20.832-10.816-49.472 9.248-64.896 20.864-15.456 49.44-10.816 64.928 9.28l428.928 575.072 428.96-575.104c14.72-20.064 44.096-24.704 64.16-9.248z" />
<glyph unicode="&#xe61c;" glyph-name="stethoscope2" d="M873.44 853.152c-65.056 0-118.048-52.928-118.048-118.048 0-51.36 32.704-95.968 80.736-111.936v-367.712c0-134.944-109.824-244.704-244.768-244.704-135.008 0-244.768 109.792-244.768 244.704v40.96c135.168 18.464 239.392 136.64 239.392 274.272v250.304c0 42.816-24.16 82.56-61.856 102.688-9.408 21.984-30.816 36.32-55.040 36.32-32.96 0-59.84-26.848-59.84-59.872 0-32.96 26.88-59.84 59.84-59.84 11.136 0 21.92 3.072 31.264 8.864 6.944-7.68 10.944-17.696 10.944-28.128v-250.336c0-111.424-90.656-202.080-202.048-202.080-111.424 0-202.080 90.656-202.080 202.080v250.304c0 10.848 4.224 21.12 11.616 28.864 9.6-6.24 20.8-9.568 32.416-9.568 33.024 0 59.904 26.88 59.904 59.84-0.032 33.024-26.912 59.872-59.936 59.872-23.52 0-44.704-13.856-54.368-34.976-39.264-19.744-64.32-60-64.32-104.032v-250.336c0-137.568 104.256-255.808 239.424-274.272v-40.896c0-176.16 143.296-319.488 319.456-319.488 176.128 0 319.424 143.328 319.424 319.488v367.68c48.064 15.968 80.736 60.576 80.736 111.936 0 65.088-52.992 118.048-118.080 118.048z" />
<glyph unicode="&#xe61d;" glyph-name="medic" d="M852.704 472.256c-1.888 56.992-19.328 115.232-50.656 168.928v318.816h-576.704v-215.552c-43.648-33.152-69.6-84.288-69.6-137.536 0-28.16 7.072-56.032 20.416-80.864-3.616-18.432-5.728-36.64-6.336-54.24-43.904-13.92-74.016-54.688-74.016-101.472 0-46.624 30.080-87.328 73.888-101.312 2.24-86.496 36.768-168.096 97.824-230.368 6.048-8.16 12.704-14.24 29.024-26.656l44.544-30.432 0.832-0.512c2.592-1.344 5.152-2.72 7.584-4.032 7.232-3.808 14.016-7.488 21.632-10.944l65.664-21.408 0.736-0.16c24.736-5.632 49.216-8.512 72.672-8.512h3.584c25.152 0 50.432 2.816 75.136 8.544l66.656 22.848c10.784 4.992 24.608 11.776 35.904 19.392l0.448 0.352c44.096 34.336 58.72 45.856 63.616 51.296l0.096-0.064c60.544 62.112 94.912 143.616 97.216 230.208 44.672 13.344 75.36 54.272 75.36 101.792 0.032 47.584-30.656 88.576-75.52 101.888zM483.52 675.36c-27.328 62.56-88.192 102.592-156.736 102.592-14.752 0-29.728-1.92-43.2-5.44v129.28h460.224v-226.432h-260.288zM326.816 494.112c-62.176 0-112.8 50.624-112.8 112.8s50.624 112.8 112.8 112.8 112.8-50.624 112.8-112.8-50.592-112.8-112.8-112.8zM227.68 461.44c0 1.984 0.032 4 0.096 6.112 28.832-20.544 63.424-31.68 99.008-31.68 94.304 0 171.072 76.704 171.072 171.040 0 3.328-0.096 6.72-0.352 10.176h251.040c30.176-45.76 46.112-99.456 46.112-155.648v-183.712c0-112.352-66.016-214.304-168.16-259.712-35.584-15.776-73.472-23.776-112.704-23.776h-3.584c-29.792 0-60.864 5.472-92.352 16.32-5.344 1.856-20.928 7.872-21.312 7.968-102.624 45.76-168.864 147.392-168.864 259.232v183.68zM869.888 370.336c0-14.432-6.304-27.776-16.96-36.768v73.632c10.624-8.992 16.96-22.304 16.96-36.864zM169.44 406.080v-71.392c-9.76 8.768-15.52 21.536-15.52 35.648 0 14.176 5.76 26.944 15.52 35.744zM378.080 274.976c31.296 0 56.768 25.472 56.768 56.736 0 31.328-25.472 56.768-56.768 56.768-31.328 0-56.768-25.472-56.768-56.768 0-31.264 25.472-56.736 56.768-56.736zM645.92 274.976c31.328 0 56.768 25.472 56.768 56.736 0 31.328-25.472 56.768-56.768 56.768s-56.736-25.472-56.736-56.768c-0.032-31.264 25.44-56.736 56.736-56.736zM326.816 649.696c-24.672 0-44.768-20.096-44.768-44.768s20.096-44.736 44.768-44.736c24.672 0 44.768 20.064 44.768 44.736s-20.096 44.768-44.768 44.768zM542.848 863.424h-58.24v-40.64h-40.672v-58.24h40.672v-40.704h58.24v40.704h40.672v58.24h-40.672v40.64z" />
<glyph unicode="&#xe61e;" glyph-name="monitor" d="M137.824 188.672h334.784v-157.536h-249.44c-21.632 0-39.36-17.728-39.36-39.328 0-21.696 17.76-39.424 39.36-39.424h571.072c21.664 0 39.392 17.76 39.392 39.424 0 21.632-17.76 39.328-39.392 39.328h-242.88v157.536h334.816c75.456 0 137.824 62.368 137.824 137.888v477.888c0 75.488-62.336 139.168-137.824 139.168h-748.352c-75.488 0-137.824-63.648-137.824-139.168v-477.888c0-75.488 62.336-137.888 137.824-137.888zM945.216 325.248c0-32.128-26.272-57.792-57.792-57.792h-750.912c-32.128 0-57.728 26.272-57.728 57.792v481.824c0 32.16 26.24 57.76 57.728 57.76h750.304c32.128 0 57.792-26.24 57.792-57.76v-481.824h0.608z" />
<glyph unicode="&#xe61f;" glyph-name="hospital" d="M420.864 779.2c0 13.504 10.944 24.48 24.48 24.48h42.272v42.24c0 13.504 10.944 24.448 24.416 24.448 13.568 0 24.448-10.944 24.448-24.448v-42.272h42.272c13.504 0 24.48-10.944 24.48-24.48 0-13.472-10.976-24.416-24.48-24.416h-42.272v-42.272c0-13.504-10.88-24.448-24.448-24.448-13.44 0-24.416 10.944-24.416 24.448v42.304h-42.272c-13.536 0-24.48 10.944-24.48 24.416zM1008.864-39.584c0-13.504-10.944-24.416-24.448-24.416h-944.864c-13.504 0-24.448 10.912-24.448 24.416s10.944 24.416 24.448 24.416h79.296v794.368c0 13.504 10.912 24.48 24.416 24.48h189.632c11.936 88.16 87.744 156.32 179.104 156.32 91.424 0 167.232-68.16 179.2-156.352h168.768c6.464 0 12.704-2.592 17.28-7.168 4.544-4.608 7.168-10.784 7.168-17.312v-794.368h100.032c13.504 0 24.416-10.88 24.416-24.384zM380.096 779.2c0-72.704 59.168-131.904 131.904-131.904 72.768 0 131.968 59.168 131.968 131.904 0 72.8-59.2 131.968-131.968 131.968-72.704 0-131.904-59.168-131.904-131.968zM474.784 140h-105.184v-155.2h105.184v155.2zM630.464 140h-106.816l-0.064-155.2h106.88v155.2zM835.552 754.784h-144.352c-11.968-88.16-87.744-156.352-179.2-156.352-91.36 0-167.168 68.192-179.104 156.352h-165.184v-769.984h152.992v179.552c0 13.536 10.976 24.416 24.48 24.416h309.664c13.536 0 24.48-10.88 24.48-24.416v-179.552h156.256v769.984h-0.032zM652.672 547.456h102.432c13.504 0 24.448-10.88 24.448-24.416v-204.928c0-13.472-10.944-24.512-24.448-24.512h-102.432c-13.504 0-24.384 11.040-24.384 24.512v204.928c0.032 13.536 10.912 24.416 24.384 24.416zM677.088 342.56h53.632v156.064h-53.632v-156.064zM578.080 527.872v-209.728c0-13.472-10.976-24.512-24.448-24.512h-105.632c-13.44 0-24.416 11.040-24.416 24.512v209.728c0 13.472 10.976 24.416 24.416 24.416h105.664c13.472-0.032 24.416-10.944 24.416-24.416zM526.016 498.624h-53.568v-156.064h53.568v156.064zM368.608 527.872v-209.728c0-13.472-10.944-24.512-24.448-24.512h-83.264c-13.504 0-42.016 11.040-42.016 24.512v209.728c0 13.472 10.912 24.416 24.416 24.416h100.832c13.504-0.032 24.48-10.944 24.48-24.416zM319.712 498.624h-51.968v-156.064h51.968v156.064z" />
<glyph unicode="&#xe620;" glyph-name="home" d="M35.36 360.8h83.392v-333.6c0-19.68 16.064-35.744 35.744-35.744h244.256c19.648 0 35.744 16.064 35.744 35.744v244.256h148.96v-244.256c0-19.68 16.064-35.744 35.744-35.744h232.32c19.68 0 35.744 16.064 35.744 35.744v333.6h101.248c14.336 0 27.424 8.896 32.768 22.016 5.44 13.12 2.4 28.608-7.744 38.72l-465.824 472.448c-13.728 13.696-36.32 14.272-50.048 0.576l-486.72-472.384c-10.688-10.176-13.696-25.696-8.32-39.36 5.344-13.664 18.464-22.016 32.736-22.016zM521.472 818.304l381.344-386.048h-51.264c-19.68 0-35.68-16.064-35.68-35.744v-333.632h-160.864v244.32c0 19.616-16.064 35.744-35.744 35.744h-220.48c-19.648 0-35.744-16.128-35.744-35.744v-244.32h-172.768v333.632c0 19.68-16.096 35.744-35.744 35.744h-30.976l397.92 386.048z" />
<glyph unicode="&#xe621;" glyph-name="menu" d="M43.904 733.312h936.224c24.16 0 43.872 19.712 43.872 43.872 0 24.096-19.712 43.904-43.872 43.904h-936.224c-24.16 0-43.904-19.808-43.904-43.904 0-24.16 19.744-43.872 43.904-43.872zM43.904 404.128h936.224c24.16 0 43.872 19.712 43.872 43.872s-19.712 43.904-43.872 43.904h-936.224c-24.16 0-43.904-19.744-43.904-43.904s19.744-43.872 43.904-43.872zM43.904 74.944h936.224c24.16 0 43.872 19.776 43.872 43.936s-19.712 43.808-43.872 43.808h-936.224c-24.16 0-43.904-19.648-43.904-43.808s19.744-43.936 43.904-43.936z" />
<glyph unicode="&#xe622;" glyph-name="lens2" d="M705.28 291.52c65.472 70.88 106.304 165.76 106.304 270.272 0 219.264-178.336 398.208-398.176 398.208-219.808 0-398.144-178.944-398.144-398.208 0-219.2 178.336-398.208 398.144-398.208 89.536 0 171.776 29.44 238.464 79.296l296.064-296.096c7.264-7.232 16.224-10.784 25.216-10.784s18.624 3.552 25.216 10.784c13.856 13.824 13.856 36.608 0 51.072l-293.088 293.664zM87.296 561.792c0 179.552 145.952 326.144 326.112 326.144 179.552 0 326.144-145.984 326.144-326.144 0-180.224-146.016-326.144-326.144-326.144-180.192 0-326.112 146.56-326.112 326.144z" />
<glyph unicode="&#xe623;" glyph-name="mail" d="M33.792 716.224c27.776-14.944 412.32-221.536 426.656-229.216 14.304-7.712 32.864-11.392 51.552-11.392s37.184 3.68 51.52 11.392c14.304 7.68 398.88 214.272 426.624 229.216 27.808 14.88 54.112 61.76 3.072 61.76h-962.496c-50.976 0-24.736-46.88 3.072-61.76zM1001.952 602.432c-31.552-16.48-419.104-219.136-438.4-229.216s-32.896-11.424-51.52-11.424c-18.688 0-32.256 1.376-51.552 11.424-19.328 10.048-406.88 212.704-438.464 229.216-22.208 11.552-22.016-2.016-22.016-12.48 0-10.496 0-417.376 0-417.376 0-23.776 31.776-54.528 56.416-54.528h911.136c24.672 0 56.448 30.752 56.448 54.528 0 0 0 406.88 0 417.376 0 10.464 0.192 24.032-22.048 12.48z" />
<glyph unicode="&#xe800;" glyph-name="encyclopedia" d="M842.432 105.728h23.168c12.768 0 23.168 10.336 23.168 23.168v807.936c0 12.8-10.368 23.2-23.168 23.2h-671.84c-29.536-0.032-58.528-28.736-58.528-58.048v-928.032c0-18.88 14.976-37.952 48.416-37.952h681.952c12.768 0 23.168 10.336 23.168 23.168 0 12.768-10.368 23.168-23.168 23.168h-23.168v123.392zM322.656 152.064v761.6h354.624l165.152-173.792v-421.632l-164.864-166.176h-354.912zM842.432 252.448v-100.384h-99.584l99.584 100.384zM842.432 807.136l-101.248 106.528h101.248v-106.528zM193.76 913.664h82.56v-761.6h-92.672c-0.672 0-1.376-0.064-2.080-0.096v750.016c0 3.936 8.096 11.68 12.192 11.68zM181.568 101.184c22.848-9.28 38.528-31.776 38.528-57.152 0-25.696-15.584-47.968-38.528-57.184v114.336zM247.2-17.696c7.968 11.456 13.696 24.512 16.736 38.528h69.824c12.8 0 23.168 10.368 23.168 23.2 0 12.736-10.368 23.168-23.168 23.168h-69.856c-3.104 14.016-8.928 27.008-16.928 38.528h549.088v-38.528h-377.76c-12.8 0-23.168-10.4-23.168-23.168 0-12.8 10.368-23.2 23.168-23.2h377.76v-38.528h-548.864zM685.632 568h-206.208c-12.768 0-23.168-10.368-23.168-23.168s10.368-23.2 23.168-23.2h206.208c12.8 0 23.168 10.4 23.168 23.2s-10.368 23.168-23.168 23.168zM721.568 660.704h-278.048c-12.8 0-23.168-10.4-23.168-23.2 0-12.768 10.368-23.136 23.168-23.136h278.048c12.736 0 23.168 10.368 23.168 23.136-0.032 12.8-10.432 23.2-23.168 23.2z" />
<glyph unicode="&#xe801;" glyph-name="books" d="M1020.736 165.248l-111.872 471.392c-13.312 56.224-67.616 98.656-126.272 98.656-3.328 0-6.688-0.128-10.016-0.416l-1.824-0.16v13.76c0 10.144-4.448 19.712-12.544 26.944-17.12 15.424-49.568 18.656-73.76 18.656-13.856 0-26.4-1.024-34.496-1.92l-353.28-38.528-53.344 30.016 394.816 40.992c6.944 0.736 13.12 4.096 17.536 9.472 4.384 5.376 6.368 12.192 5.664 19.104-1.376 13.28-12.544 23.328-26.016 23.328-0.832 0-1.728-0.032-2.56-0.128l-450.24-46.752-0.48 1.216c-2.304 5.92-6.208 10.56-11.328 13.44l-15.136 8.512 404.224 43.936c6.88 0.736 13.088 4.128 17.472 9.568 4.32 5.408 6.304 12.192 5.568 19.104-1.44 13.216-12.544 23.2-25.856 23.2-0.928 0-1.92-0.032-2.848-0.128l-492.672-53.6c-5.44-0.608-10.528-2.912-14.688-6.72l-0.256-0.224-0.32-0.128c-29.376-10.976-46.208-41.76-46.208-84.512v-507.68c0-60.416 34.784-127.264 79.232-152.256l65.984-37.12c3.904-2.176 8.32-3.328 12.736-3.328 0.32 0 0.608 0.096 0.896 0.16 0.384 0.032 0.768 0.128 1.152 0.128l1.056 0.128 0.544-0.96c14.56-24.672 32.128-43.264 50.816-53.76l65.984-37.12c7.904-4.48 18.112-4.352 25.888 0.224 7.968 4.672 12.896 13.28 12.896 22.464v508.256l101.28-493.76c11.84-57.792 58.4-101.312 108.32-101.312 4.096 0 8.32 0.288 12.576 0.864l73.088 10.688c0.032 0.032 0.128 0.064 0.16 0.064 0.192 0.064 0.384 0.128 0.576 0.16 0.256 0.032 0.416 0.064 0.608 0.064 0.064 0 0.128 0 0.16 0l317.632 65.792c31.136 6.432 57.568 24.576 74.464 51.104 16.832 26.496 22.080 58.144 14.688 89.12zM131.936 173.44l-27.2 15.328c-28.064 15.776-52.704 65.76-52.704 106.912v507.648c0 20.864 6.624 36.576 15.392 36.576 3.232 0 7.328-1.344 11.84-3.872l52.672-29.632v-632.96zM265.152 78.624l-27.2 15.328c-28.064 15.808-52.704 65.792-52.704 106.912v507.712c0 20.832 6.624 36.544 15.392 36.544 3.232 0 7.424-1.376 11.808-3.872l52.704-29.632v-632.992zM320.608 595.52l-3.392-13.504v121.472l338.368 36.896c9.888 1.024 19.36 1.568 28.32 1.568 17.92 0 28.672-2.080 33.536-3.328l1.28-0.352v-10.208l-254.624-33.216c-0.384-0.064-0.8-0.16-1.216-0.256-0.32-0.096-0.64-0.16-0.96-0.256-0.32-0.064-0.672-0.128-0.992-0.16-0.256-0.064-0.544-0.064-0.8-0.16l-70.56-20.576c-33.344-9.664-59.136-38.816-68.96-77.92zM531.808-0.256c-1.696-0.256-3.424-0.352-5.152-0.352-25.248 0-50.368 26.24-57.248 59.776l-99.136 483.36c-7.456 36.384 8.032 73.44 33.824 80.992l43.52 12.704 0.384-1.824 129.536-627.968-45.728-6.688zM962.080 104.032c-9.248-14.56-23.84-24.544-41.088-28.096l-292.128-60.512-130.272 631.488 275.296 35.936c2.912 0.384 5.888 0.576 8.8 0.576 34.592 0 67.744-25.824 75.552-58.784l111.936-471.424c4.032-17.184 1.184-34.624-8.096-49.184zM809.088 605.408c-2.944 11.552-13.248 19.648-25.12 19.648-1.504 0-3.072-0.16-4.576-0.416l-212.352-37.12c-6.848-1.184-13.024-5.184-16.96-10.944-4-5.792-5.44-12.832-4.064-19.808l28.864-144.32c2.432-12.096 13.152-20.896 25.472-20.896 1.408 0 2.784 0.128 4.128 0.352l220.608 35.040c7.2 1.184 13.664 5.312 17.664 11.392 4 6.048 5.248 13.632 3.456 20.704l-37.12 146.368zM620.992 447.232l-18.72 93.632 162.272 28.352 24.224-95.36-167.776-26.624z" />
<glyph unicode="&#xe802;" glyph-name="desk" d="M705.12 663.328v28.448c0 12.48-10.144 22.592-22.592 22.592-12.512 0-22.592-10.112-22.592-22.592v-28.448c0-12.48 10.080-22.592 22.592-22.592 12.448 0 22.592 10.112 22.592 22.592zM596.832 640.736c7.136 0 14.080 3.328 18.464 9.536l20.128 28.448c7.232 10.208 4.768 24.288-5.376 31.488-10.208 7.232-24.32 4.768-31.552-5.408l-20.096-28.416c-7.2-10.176-4.768-24.32 5.408-31.488 4-2.816 8.512-4.16 13.024-4.16zM768.192 640.736c4.512 0 9.056 1.344 13.024 4.128 10.176 7.232 12.608 21.312 5.408 31.488l-20.096 28.416c-7.232 10.208-21.312 12.64-31.52 5.408-10.208-7.136-12.608-21.248-5.408-31.456l20.128-28.448c4.384-6.208 11.36-9.536 18.464-9.536zM679.936 477.312h-335.872c-12.48 0-22.624-10.112-22.624-22.624v-248c0-12.48 10.112-22.592 22.624-22.592h335.872c12.512 0 22.592 10.112 22.592 22.592v248c0 12.512-10.080 22.624-22.592 22.624zM489.376 229.28h-122.72v202.816h122.72v-202.816zM657.344 229.28h-122.752v202.816h122.752v-202.816zM1023.904 108l-30.080 448.448c-0.8 11.872-10.656 21.088-22.528 21.088h-51.84l89.632 126.944c3.84 5.408 5.056 12.256 3.392 18.688s-6.048 11.808-12.064 14.688l-217.408 105.12c-24.608 27.904-60.512 45.568-100.48 45.568-73.792 0-133.824-60.032-133.824-133.824 0-12.48 10.112-22.592 22.592-22.592h222.432c0.032 0 0.032 0 0.032 0 12.512 0 22.624 10.112 22.624 22.592 0 0.64-0.032 1.248-0.096 1.856-0.064 7.168-0.768 14.208-1.984 21.056l142.4-68.832-92.672-131.2h-811.296c-11.904 0-21.76-9.248-22.56-21.12l-30.112-448.48c-0.032-0.288-0.064-1.248-0.064-1.504v-76.448c0-12.448 10.112-22.592 22.624-22.592h978.752c12.512 0 22.624 10.144 22.624 22.592v76.448c0 0.256-0.032 1.216-0.096 1.504zM596.832 777.312c10.016 37.952 44.64 66.016 85.696 66.016s75.648-28.064 85.664-66.016h-171.36zM73.856 532.32h758.368l-11.712-16.544c-48.128-6.080-85.504-47.232-85.504-96.992 0-12.48 10.112-22.592 22.592-22.592h150.432c12.512 0 22.56 10.112 22.56 22.592 0 0.64 0 1.28-0.032 1.92-0.768 39.584-25.184 73.472-59.648 88.096l16.64 23.552h62.592l27.072-403.264h-930.464l27.104 403.232zM880.256 441.376h-94.944c8.48 17.696 26.528 29.984 47.456 29.984s39.008-12.256 47.488-29.984zM978.784 52.672h-933.568v31.2h933.568v-31.2z" />
<glyph unicode="&#xe803;" glyph-name="hourglass" d="M778.112 61.28h-40.128c-4.704 145.312-54.432 277.568-132.32 350.24-0.96 1.312-20.352 18.88-20.256 36.736 0.032 10.592 5.664 21.472 17.184 33.344 0.064 0.064 0.128 0.096 0.16 0.128 79.552 72.064 130.432 205.856 135.232 352.992h40.128c34.528 0 62.624 28.096 62.624 62.656s-28.064 62.624-62.624 62.624h-532.288c-34.496 0-62.592-28.064-62.592-62.624s28.096-62.656 62.592-62.656h40.128c4.832-147.136 55.648-280.928 135.232-352.992 0.064-0.032 0.096-0.064 0.192-0.128 11.488-11.84 17.152-22.72 17.152-33.344 0-12.064-13.056-30.432-20.256-36.736-77.888-72.672-127.552-204.928-132.32-350.24h-40.128c-34.496 0-62.592-28.096-62.592-62.688 0-34.496 28.096-62.592 62.592-62.592h532.288c34.528 0 62.624 28.096 62.624 62.592 0 34.592-28.064 62.688-62.624 62.688zM245.824 880.512c-9.248 0-16.832 7.584-16.832 16.864s7.584 16.864 16.832 16.864h532.288c9.312 0 16.832-7.552 16.832-16.864s-7.52-16.864-16.832-16.864h-532.288zM331.744 834.752h360.512c-2.304-66.56-14.528-129.792-34.848-184.384l-276.8-33.6c-28.704 61.504-46.112 137.248-48.864 217.984zM404.064 573.504l231.904 28.128c-17.472-33.76-38.496-62.56-62.56-84.672-0.672-0.512-25.664-25.152-30.24-45.824h-62.336c-6.4 21.824-29.632 45.344-30.336 45.888-17.056 15.712-32.576 34.72-46.432 56.48zM451.904 380.32c0.832 0.8 23.52 26.016 29.184 45.088h61.824c4.672-20.608 28.32-44.256 29.152-45.088 50.816-46.016 88.448-121.792 107.296-210.88l-160.256 52.256c-4.608 1.472-9.6 1.472-14.176 0l-160.224-52.256c18.752 89.088 56.416 164.832 107.2 210.88zM336.224 118.528l175.776 57.28 175.744-57.28c2.304-18.752 3.808-37.856 4.48-57.248h-360.48c0.704 19.392 2.144 38.496 4.48 57.248zM778.112-18.208h-532.288c-9.248 0-16.832 7.52-16.832 16.8 0 9.312 7.584 16.864 16.832 16.864h532.288c9.312 0 16.832-7.552 16.832-16.864 0.032-9.28-7.52-16.8-16.832-16.8z" />
<glyph unicode="&#xe804;" glyph-name="tools" d="M249.152 453.024l82.432-13.888v-20.032c0-5.248 2.144-10.208 5.952-13.76l33.12-31.232-161.6-171.36-40.032-2.624c-4.512-0.352-8.736-2.208-12-5.44l-61.28-60c-42.272-41.504-56.064-92.992-32.096-119.84 9.6-10.752 24.032-15.968 40.96-15.968 25.024 0 55.456 11.392 83.616 33.088l68.928 53.152c3.136 2.432 5.408 5.792 6.56 9.6l11.104 36.992 185.12 158.496 327.584-307.936c22.208-20.864 50.976-31.232 79.68-31.232 30.016 0 59.936 11.296 82.432 33.792l41.664 41.696c21.472 21.472 33.088 49.824 32.672 79.872-0.48 30.016-12.96 58.016-35.168 78.88l-271.328 254.816 299.424 308.192c3.552 3.68 5.504 8.704 5.312 13.824-0.16 5.152-2.432 10.016-6.272 13.44l-156.736 140.544c-7.392 6.656-18.784 6.4-25.92-0.64l-308.128-304.544c-0.864-0.864-1.312-1.984-1.984-2.944l-11.296-1.024-10.336 93.12c-0.608 135.136-112.864 244.864-251.008 244.864-18.656 0-37.344-2.048-55.424-6.080-14.784-3.264-25.536-13.088-29.472-26.912-6.848-24.096 8.096-57.792 39.008-87.872l85.472-83.328-69.472-71.232-89.792 90.72c-23.52 23.776-51.808 37.952-75.616 37.952-23.072 0-40.416-12.864-46.4-34.4-5.856-21.024-8.832-42.816-8.832-64.768 0-135.104 111.616-245.12 249.152-245.984zM246.016 156.768c-2.752-2.336-4.768-5.504-5.824-8.896l-10.944-36.544-64.096-49.408c-34.080-26.304-66.816-29.12-73.28-21.888-6.336 7.040 0.352 38.112 30.368 67.52l56.288 55.264 40.448 2.688c4.768 0.256 9.216 2.336 12.512 5.856l166.752 176.864 34.016-32.032-186.24-159.424zM962.944 157.664c14.656-13.76 22.912-32.16 23.2-51.872 0.32-19.68-7.36-38.336-21.536-52.576l-41.696-41.696c-29.728-29.696-78.816-30.4-109.44-1.696l-444.096 417.472v19.424l133.792 121.408 20.736 1.92 439.040-412.384zM847.232 876.032l128.832-115.552-286.112-294.56-132.128 124.096 289.408 286.016zM45.28 753.632c1.024 3.68 2.432 6.688 9.952 6.688 10.24 0 29.184-7.008 48.768-26.752l103.328-104.384c3.552-3.584 8.384-5.6 13.408-5.6 0.032 0 0.032 0 0.064 0 5.056 0 9.92 2.048 13.472 5.696l96.096 98.528c3.488 3.584 5.44 8.416 5.344 13.44-0.032 5.024-2.112 9.824-5.696 13.312l-98.976 96.544c-25.536 24.864-31.040 46.336-27.712 50.848 15.424 3.424 31.328 5.152 47.424 5.152 117.408 0 212.96-93.344 212.96-208.128 0-0.672 0.032-1.376 0.096-2.048l11.456-102.976-130.72-118.656-90.656 15.328c-1.024 0.16-2.080 0.256-3.168 0.256-117.376 0-212.928 93.376-212.928 208.128 0.032 18.528 2.528 36.928 7.488 54.624zM864.608 30.72c43.232 0 78.4 35.2 78.4 78.4 0 43.264-35.2 78.336-78.4 78.336s-78.368-35.104-78.368-78.336c-0.032-43.2 35.168-78.4 78.368-78.4zM864.608 149.696c22.368 0 40.608-18.176 40.608-40.576 0-22.336-18.208-40.608-40.608-40.608-22.336 0-40.544 18.24-40.544 40.608s18.208 40.576 40.544 40.576zM870.784 827.488c-7.968 7.744-20.832 7.584-28.64-0.448l-226.112-232.896c-7.808-8-7.616-20.832 0.384-28.64 3.968-3.84 9.024-5.728 14.144-5.728 5.28 0 10.592 2.048 14.528 6.176l226.112 232.864c7.808 8.032 7.616 20.896-0.416 28.672zM914.976 786.464c-7.968 7.776-20.8 7.584-28.64-0.448l-226.112-232.864c-7.776-8.032-7.584-20.864 0.416-28.64 3.936-3.808 9.024-5.728 14.112-5.728 5.28 0 10.56 2.048 14.528 6.144l226.080 232.896c7.872 8 7.68 20.832-0.384 28.64z" />
<glyph unicode="&#xe805;" glyph-name="target-arrow" d="M1022.176 829.152c-3.68 8.896-12.384 14.688-22.016 14.688h-92.384v92.352c0 9.632-5.792 18.336-14.688 22.016s-19.168 1.664-25.984-5.152l-93.216-93.28c-4.512-4.48-7.040-10.528-7.040-16.832v-106.304l-78.24-78.24c-75.744 67.68-172.576 104.704-275.104 104.704-110.56 0-214.432-42.976-292.48-121.056-78.016-78.080-121.024-181.984-121.024-292.512 0-110.56 43.008-214.4 121.056-292.48s181.952-121.056 292.48-121.056c110.528 0 214.4 43.008 292.48 121.056 78.048 78.048 121.024 181.92 121.024 292.48 0 102.56-36.992 199.392-104.672 275.168l78.176 78.24h106.304c6.304 0 12.384 2.528 16.8 6.976l93.344 93.28c6.816 6.784 8.896 17.024 5.184 25.952zM814.56 833.056l45.632 45.632v-48.8l-45.632-45.632v48.8zM779.424 349.536c0-201.792-164.16-365.888-365.888-365.888-201.792 0-365.92 164.096-365.92 365.888s164.16 365.92 365.92 365.92c92.32 0 176.768-34.368 241.216-90.976l-58.272-58.336c-49.44 41.792-113.28 67.072-182.912 67.072-156.416 0-283.648-127.264-283.648-283.68s127.232-283.584 283.648-283.584c156.384 0 283.648 127.2 283.648 283.584 0 69.664-25.248 133.504-67.072 182.912l58.304 58.304c56.608-64.416 90.976-148.864 90.976-241.216zM519.616 349.536c0-58.528-47.584-106.080-106.080-106.080-58.528 0-106.080 47.552-106.080 106.080 0 58.496 47.584 106.144 106.080 106.144 20.64 0 39.904-5.984 56.192-16.224l-73.056-73.088c-9.312-9.312-9.312-24.384 0-33.664 4.64-4.672 10.752-7.008 16.832-7.008s12.16 2.304 16.832 7.008l73.056 73.024c10.304-16.288 16.224-35.584 16.224-56.192zM504 473.696c-25.376 18.592-56.672 29.568-90.464 29.568-84.768 0-153.728-68.96-153.728-153.76s68.96-153.76 153.728-153.76c84.736 0 153.696 68.96 153.696 153.76 0 33.824-11.008 65.12-29.536 90.496l58.656 58.624c33.216-40.704 53.184-92.64 53.184-149.12 0-130.144-105.856-236.032-236-236.032s-236 105.888-236 236.032c0 130.112 105.856 236 236 236 56.512 0 108.416-19.968 149.088-53.216l-58.624-58.592zM897.024 750.56h-48.8l45.664 45.632h48.8l-45.664-45.632z" />
<glyph unicode="&#xe806;" glyph-name="circle-hourglass" d="M512 960c-282.782 0-512-229.218-512-511.992s229.218-512.008 512-512.008 512 229.237 512 512.008-229.218 511.992-512 511.992zM512-45.382c-272.49 0-493.382 220.91-493.382 493.392 0 272.48 220.891 493.371 493.382 493.371 272.493 0 493.382-220.891 493.382-493.373 0-272.48-220.889-493.39-493.382-493.39zM562.582 485.278c39.836 36.090 65.311 101.986 67.711 175.714h20.091c17.289 0 31.363 10.357 31.363 27.648 0 17.289-14.074 27.648-31.363 27.648h-266.527c-17.273 0-31.347-10.359-31.347-27.648 0-17.291 14.074-27.648 31.347-27.648h20.091c2.419-73.728 27.871-139.624 67.709-175.714 0.037-0.018 0.053 0.479 0.090 0.461 5.763-5.935 8.6-11.135 8.6-16.433 0-6.027-6.545-18.090-10.146-21.254-39-36.391-63.873-104.499-66.255-178.227h-20.091c-17.273 0-31.347-10.359-31.347-27.648s14.074-27.648 31.347-27.648h266.527c17.289 0 31.363 10.359 31.363 27.648s-14.074 27.648-31.363 27.648h-20.091c-2.363 73.728-27.257 141.959-66.257 178.36-0.489 0.645-10.183 10.955-10.144 19.89 0.018 5.3 2.836 10.983 8.618 16.921 0.020 0.018 0.055 0.264 0.074 0.283zM383.855 679.424c-4.637 0-8.438 4.563-8.438 9.216 0 4.655 3.799 9.216 8.438 9.216h266.527c4.653 0 8.436-4.561 8.436-9.216 0-4.653-3.783-9.216-8.436-9.216h-266.527zM426.873 660.992h180.509c-1.163-36.864-7.272-63.932-17.437-91.277l-138.619-17.353c-14.363 30.8-23.071 71.766-24.453 108.63zM650.381 251.392c4.653 0 8.436-4.563 8.436-9.216s-3.783-9.216-8.436-9.216h-266.527c-4.637 0-8.438 4.563-8.438 9.216s3.799 9.216 8.438 9.216h266.527zM607.363 269.824h-180.49c0.344 18.432 1.073 22.252 2.236 31.633l88.019 30.198 88.001-30.943c1.163-9.38 1.907-12.456 2.234-30.888zM600.91 329.929l-80.239 26.182c-2.308 0.743-4.801 0.743-7.109 0l-80.218-26.182c9.4 44.636 28.254 81.605 53.69 104.661 0.42 0.383 11.782 21.604 14.619 21.604h30.945c2.347-18.432 14.182-21.221 14.6-21.604 25.455-23.058 44.292-60.025 53.711-104.661zM547.873 500.767c-0.326-0.262-12.853-7.711-15.145-26.143h-31.22c-3.201 18.432-14.836 25.899-15.182 26.18-8.528 7.854-16.308 18.971-23.237 29.87l116.109 13.292c-8.745-16.9-19.272-32.117-31.326-43.198z" />
<glyph unicode="&#xe807;" glyph-name="circle-target-arrow" d="M512 960c-282.782 0-512-229.218-512-511.992s229.218-512.008 512-512.008 512 229.237 512 512.008-229.218 511.992-512 511.992zM512-45.382c-272.49 0-493.382 220.91-493.382 493.392 0 272.48 220.891 493.371 493.382 493.371 272.493 0 493.382-220.891 493.382-493.373 0-272.48-220.889-493.39-493.382-493.39zM773.364 671.232h-38.132v38.25c0 4.6-5.761 8.753-10.017 10.508-4.256 1.763-10.643 0.791-13.898-2.464l-45.498-44.554c-2.146-2.136-4.315-5.028-4.315-8.047v-50.78l-37.171-37.382c-36.2 32.336-82.338 50.026-131.328 50.026-52.81 0-102.388-20.535-139.68-57.836-37.29-37.29-57.809-86.919-57.809-139.719 0-52.818 20.564-102.437 57.856-139.727 37.29-37.292 86.919-57.838 139.729-57.838 52.818 0 102.433 20.546 139.739 57.838 37.292 37.29 57.815 86.909 57.815 139.727 0 48.99-17.672 94.962-50 131.16l37.362 37.108h50.782c3.019 0 5.911 1.475 8.036 3.602l44.564 44.706c3.254 3.254 4.235 11.147 2.472 15.401-1.761 4.246-5.908 10.019-10.508 10.019zM667.91 429.236c0-96.399-78.418-174.801-174.801-174.801-96.391 0-174.809 78.399-174.809 174.801 0 96.383 78.418 174.801 174.809 174.801 44.11 0 84.455-16.427 115.237-43.473l-27.855-27.863c-23.62 19.972-54.11 32.035-87.382 32.035-74.717 0-135.5-60.791-135.5-135.5 0-74.725 60.783-135.49 135.5-135.49 74.709 0 135.51 60.764 135.51 135.49 0 33.264-12.073 63.764-32.037 87.374l27.855 27.855c27.054-30.783 43.473-71.129 43.473-115.229zM485.065 421.2c2.218-2.236 5.136-3.346 8.045-3.346s5.818 1.11 8.047 3.346l34.9 34.892c4.893-7.791 7.727-16.998 7.727-26.855 0-27.963-22.729-50.69-50.674-50.69-27.953 0-50.682 22.727-50.682 50.69 0 27.947 22.729 50.682 50.682 50.682 9.873 0 19.073-2.845 26.855-7.735l-34.9-34.91c-4.446-4.436-4.446-11.637 0-16.073zM536.328 488.546c-12.128 8.872-27.073 14.127-43.219 14.127-40.491 0-73.435-32.946-73.435-73.437 0-40.507 32.944-73.454 73.435-73.454s73.437 32.946 73.437 73.454c0 16.146-5.253 31.091-14.111 43.219l28 28.008c15.874-19.438 25.418-44.245 25.418-71.227 0-62.181-50.582-112.765-112.744-112.765-62.173 0-112.744 50.582-112.744 112.765 0 62.155 50.571 112.736 112.744 112.736 27.001 0 51.8-9.538 71.219-25.418l-28-28.008zM679.936 660.21l30.72 33.415v-23.319l-30.72-33.407v23.31zM724.093 615.936h-23.329l31.543 28.672h23.31l-31.525-28.672z" />
<glyph unicode="&#xe808;" glyph-name="circle-tools" d="M512 960c-282.782 0-512-229.218-512-511.992s229.218-512.008 512-512.008 512 229.237 512 512.008-229.218 511.992-512 511.992zM512-45.382c-272.49 0-493.382 220.91-493.382 493.392 0 272.48 220.891 493.371 493.382 493.371s493.382-220.891 493.382-493.373c0-272.48-220.891-493.39-493.382-493.39zM604.854 444.090l162.2 166.955c1.927 1.991 2.982 4.71 2.873 7.481-0.092 2.791-1.327 5.419-3.4 7.283l-84.929 76.147c-4.018 3.619-10.183 3.471-14.037-0.346l-166.918-164.964c-0.463-0.471-0.7-1.063-1.071-1.599l-6.117-0.555-5.609 50.444c-0.317 73.2-61.127 132.647-135.973 132.647-10.101 0-20.218-1.11-30.018-3.299-8.010-1.774-13.836-7.090-15.964-14.582-3.709-13.046 4.383-31.3 21.127-47.6l46.299-45.144-37.628-38.572-48.636 49.136c-12.755 12.874-28.064 20.564-40.972 20.564-12.501 0-21.891-6.963-25.137-18.627-3.162-11.391-4.772-23.2-4.772-35.101 0-73.181 57.131-132.774 131.623-133.247l41.325-7.528v-10.854c0-2.839 4.493-5.546 6.558-7.473l19.612-16.89-86.714-92.836-21.264-1.438c-2.435-0.18-4.532-1.2-6.277-2.927l-33.090-32.528c-22.901-22.454-30.323-50.346-17.332-64.907 5.2-5.8 13.054-8.638 22.217-8.638 13.556 0 30.048 6.164 45.312 17.928l37.347 28.801c1.692 1.311 2.937 3.127 3.547 5.181l6.019 20.036 100.28 85.875 177.463-166.799c12.036-11.309 27.601-16.91 43.164-16.91 16.255 0 32.471 6.109 44.655 18.291l22.565 22.565c11.637 11.655 17.928 27.001 17.691 43.293-0.254 16.255-7.018 31.418-19.036 42.709l-146.981 138.031zM675.111 680.264l69.8-62.591-155.001-159.556-71.563 67.217 156.764 154.929zM353.7 471.472c-0.555 0.090-1.137 0.135-1.708 0.135-63.59 0-115.335 50.582-115.335 112.746 0.008 10.035 1.354 20.009 4.037 29.6 0.555 1.98 1.327 3.627 5.39 3.627 5.554 0 15.809-3.799 26.417-14.492l55.964-54.125c1.919-1.946 4.536-0.614 7.272-0.614 0.008 0 0.018 0 0.037 0 2.744 0 5.372-1.313 7.299 0.67l52.062 52.158c1.89 1.946 2.945 3.965 2.9 6.683-0.027 2.718-1.145 5.009-3.090 6.902l-53.627 52.138c-13.818 13.472-16.818 25.022-15.018 27.468 8.364 1.855 16.974 2.753 25.7 2.753 63.601 0 115.356-50.592 115.356-112.765 0-0.373 0.018-0.76 0.053-1.124l6.21-55.779-70.81-64.281-49.109 8.301zM349.436 290.654c-1.491-1.29-2.58-2.982-3.146-4.854l-5.935-19.763-34.72-26.763c-18.473-14.273-36.19-15.782-39.7-11.872-3.437 3.836 0.19 20.673 16.445 36.6l30.491 29.909 21.899 1.454c2.583 0.164 4.999 1.29 6.773 3.183l90.337 95.799 18.428-17.328-100.872-86.364zM738.689 234.545l-22.579-22.581c-16.091-16.075-47.045-16.474-63.623-0.909l-242.553 225.239 0.068 10.627 74.375 66.56 13.421 1.026 238.911-223.382c7.946-7.473 12.945-17.439 13.109-28.111 0.164-10.65-3.453-20.761-11.129-28.469zM684.528 307.272c-23.4 0-42.455-19.018-42.455-42.437s19.057-42.471 42.455-42.471c23.419 0 42.471 19.055 42.471 42.471s-19.053 42.437-42.471 42.437zM684.528 242.835c-12.11 0-21.965 9.873-21.965 21.981 0 12.128 9.871 21.981 21.965 21.981 12.126 0 21.981-9.855 21.981-21.981 0.002-12.106-9.855-21.981-21.981-21.981zM687.872 653.963c-4.309 4.2-11.291 4.108-15.507-0.238l-122.493-126.163c-4.219-4.327-4.127-11.282 0.217-15.51 2.146-2.073 4.893-3.101 7.655-3.101 2.871 0 5.745 1.11 7.873 3.336l122.493 126.145c4.219 4.348 4.127 11.311-0.238 15.53zM711.817 631.726c-4.327 4.219-11.272 4.119-15.507-0.236l-122.491-126.147c-4.219-4.354-4.108-11.309 0.217-15.518 2.128-2.062 4.893-3.101 7.653-3.101 2.857 0 5.728 1.118 7.875 3.328l122.472 126.155c4.254 4.346 4.145 11.291-0.219 15.518z" />
<glyph unicode="&#xe809;" glyph-name="print" d="M34.72 121.12h177.024l-41.056-122.016c-3.456-10.4-1.76-21.984 4.608-31.264s16.8-14.464 28.352-14.464h621.312c11.616 0 21.984 5.824 28.288 15.040 6.432 9.28 8.224 21.408 4.032 31.84l-45.6 120.832h177.6c19.072 0 34.72 15.68 34.72 34.752v283.456c0 3.488-0.64 6.944-1.76 9.856l-78.688 260.288c-4.672 14.464-17.952 24.864-32.96 24.864h-164.32v173.632c0 19.072-15.648 34.656-34.752 34.656h-404.928c-19.072 0-34.656-15.616-34.656-34.656v-173.536h-152.128c-15.104 0-28.352-9.28-32.96-23.744l-85.056-251.648c-1.216-3.424-1.792-7.488-1.792-11.008v-292.128c0-19.072 15.68-34.752 34.72-34.752zM251.648 22.816l83.296 248.736h345.376l94.336-248.736h-523.008zM341.344 873.184h335.456v-266.112h-335.456v266.112zM69.472 442.176l75.232 222.72h127.232v-92.512c0-19.072 15.616-34.72 34.656-34.72h404.928c19.104 0 34.752 15.648 34.752 34.72v92.544h138.272l69.984-230.816v-243.52h-168.96l-48.512 127.808c-5.184 13.344-17.952 22.624-32.48 22.624h-394.432c-15.104 0-28.352-9.28-33.024-23.744l-42.176-126.688h-165.44v251.584z" />
<glyph unicode="&#xe900;" glyph-name="clock" d="M694.4 796.8l-188.8-326.4-208 118.4-16-28.8 208-118.4-16-28.8 28.8-16 16 28.8 28.8-16 16 28.8-28.8 16 188.8 326.4-28.8 16zM512 960c-281.6 0-512-230.4-512-512s230.4-512 512-512 512 230.4 512 512c0 281.6-230.4 512-512 512zM512-28.8c-262.4 0-476.8 214.4-476.8 476.8s214.4 476.8 476.8 476.8c262.4 0 476.8-214.4 476.8-476.8s-214.4-476.8-476.8-476.8zM51.2 412.8h67.2v35.2h-67.2v-35.2zM905.6 483.2v-35.2h67.2v35.2h-67.2zM512 908.8h-35.2v-67.2h35.2v67.2zM512-12.8h35.2v67.2h-35.2v-67.2z" />
<glyph unicode="&#xe901;" glyph-name="check" d="M899.2 790.4l-531.2-531.2-243.2 243.2c-28.8 28.8-73.6 28.8-102.4 0s-28.8-73.6 0-102.4l294.4-294.4c12.8-12.8 32-22.4 51.2-22.4s38.4 6.4 51.2 22.4l582.4 582.4c28.8 28.8 28.8 73.6 0 102.4s-73.6 28.8-102.4 0z" />
<glyph unicode="&#xe902;" glyph-name="clock-back" d="M985.6 636.8c-25.6 57.6-60.8 108.8-105.6 153.6s-96 80-153.6 105.6c-60.8 25.6-121.6 38.4-188.8 38.4-176 0-336-92.8-419.2-246.4l-3.2-9.6-9.6-19.2-105.6 105.6v-265.6h265.6l-121.6 121.6 6.4 9.6 3.2 6.4c76.8 150.4 220.8 236.8 387.2 236.8 233.6 0 425.6-192 425.6-425.6s-192-425.6-425.6-425.6c-172.8 0-329.6 105.6-396.8 268.8h-64c12.8-38.4 32-76.8 54.4-112 28.8-44.8 64-80 105.6-112s89.6-57.6 137.6-73.6c51.2-19.2 105.6-25.6 160-25.6 131.2 0 252.8 51.2 345.6 144 44.8 44.8 80 96 102.4 153.6 25.6 54.4 38.4 118.4 38.4 182.4s-12.8 128-38.4 188.8zM531.2 681.6h-64v-259.2l240-144 35.2 54.4-208 124.8-3.2 3.2v220.8z" />
<glyph unicode="&#xe903;" glyph-name="net" d="M915.2 745.6v214.4h-214.4v-54.4h-214.4v-432h-51.2v163.2h-326.4v-377.6h323.2v160h51.2v-432h214.4v-51.2h214.4v214.4h-214.4v-108.8h-163.2v380.8h163.2v-54.4h214.4v217.6h-214.4v-108.8h-163.2v374.4h163.2v-108.8c3.2 3.2 217.6 3.2 217.6 3.2zM860.8 905.6v-108.8h-108.8v108.8h108.8zM860.8 528v-108.8h-108.8v108.8h108.8zM860.8 99.2v-108.8h-108.8v108.8h108.8zM163.2 313.6v268.8h214.4v-268.8c0 0-214.4 0-214.4 0z" />
<glyph unicode="&#xe904;" glyph-name="picture" d="M1024 841.6c0 19.2-16 38.4-38.4 38.4h-947.2c-22.4 0-38.4-19.2-38.4-38.4v-787.2c0-19.2 16-38.4 38.4-38.4h950.4c19.2 0 38.4 16 38.4 38.4v787.2zM950.4 803.2v-480l-220.8 156.8c-16 9.6-35.2 9.6-48-3.2l-115.2-108.8-236.8 230.4c-6.4 6.4-19.2 12.8-28.8 9.6-9.6 0-19.2-6.4-25.6-12.8l-198.4-256v464h873.6zM73.6 92.8v118.4l233.6 300.8 233.6-224c12.8-12.8 38.4-12.8 51.2 0l118.4 115.2 236.8-166.4v-140.8h-873.6zM604.8 518.4c38.4 0 73.6 32 73.6 73.6 0 38.4-32 73.6-73.6 73.6-38.4 0-73.6-32-73.6-73.6s32-73.6 73.6-73.6z" />
<glyph unicode="&#xe905;" glyph-name="mail2" d="M931.2 816h-838.4c-51.2 0-92.8-41.6-92.8-92.8v-547.2c0-51.2 41.6-96 92.8-96h835.2c54.4 0 92.8 44.8 92.8 96v547.2c3.2 51.2-38.4 92.8-89.6 92.8zM163.2 784v0l329.6-268.8c3.2-3.2 6.4-3.2 9.6-3.2s6.4 0 9.6 3.2l51.2 41.6c6.4 6.4 6.4 16 0 22.4-3.2 6.4-16 9.6-22.4 3.2l-38.4-32-288 233.6h582.4l-156.8-128c-6.4-6.4-9.6-16-3.2-22.4 3.2-3.2 6.4-6.4 12.8-6.4 3.2 0 6.4 0 9.6 3.2l188.8 153.6h83.2c9.6 0 16-3.2 22.4-6.4l-448-361.6-444.8 358.4c9.6 6.4 22.4 9.6 32 9.6h70.4zM992 172.8c0-12.8-3.2-25.6-9.6-35.2l-329.6 268.8c-6.4 6.4-19.2 6.4-22.4-3.2-6.4-6.4-3.2-19.2 3.2-22.4l326.4-265.6c-6.4-6.4-19.2-6.4-28.8-6.4h-832c-12.8 0-25.6 6.4-35.2 12.8l316.8 262.4c6.4 6.4 6.4 16 0 22.4-3.2 6.4-16 9.6-22.4 3.2l-320-259.2c-3.2 6.4-6.4 12.8-6.4 22.4v550.4c0 12.8 3.2 22.4 6.4 32l454.4-371.2c3.2-3.2 6.4-3.2 9.6-3.2s9.6 0 9.6 3.2l464 377.6c6.4-12.8 12.8-25.6 12.8-38.4l3.2-550.4z" />
<glyph unicode="&#xe906;" glyph-name="play" d="M956.8 448l-889.6-512v1024l889.6-512z" />
<glyph unicode="&#xe907;" glyph-name="check2" d="M1014.4 848c-12.8 12.8-35.2 12.8-51.2 0l-723.2-723.2-179.2 179.2c-12.8 12.8-35.2 12.8-51.2 0-12.8-12.8-12.8-35.2 0-51.2l204.8-204.8c6.4-6.4 16-9.6 25.6-9.6s19.2 3.2 25.6 9.6c0 0 0 0 0 0l748.8 748.8c12.8 12.8 12.8 35.2 0 51.2z" />
<glyph unicode="&#xe908;" glyph-name="heart" d="M572.8 70.4c-22.4-19.2-44.8-41.6-60.8-44.8-19.2 6.4-48 32-92.8 73.6-6.4 6.4-16 12.8-22.4 22.4-163.2 147.2-336 368-339.2 531.2 0 57.6 19.2 102.4 57.6 140.8 51.2 51.2 118.4 76.8 188.8 76.8s134.4-25.6 185.6-73.6c12.8-9.6 28.8-9.6 38.4 0 51.2 48 115.2 73.6 185.6 73.6s137.6-28.8 188.8-76.8c83.2-80 76.8-198.4-12.8-355.2-9.6-12.8-3.2-32 9.6-38.4 12.8-9.6 32-3.2 38.4 9.6 137.6 230.4 83.2 358.4 9.6 428.8-64 60.8-144 92.8-230.4 92.8-76.8 0-147.2-25.6-204.8-73.6-57.6 48-131.2 73.6-204.8 73.6-86.4 0-166.4-32-230.4-92.8-51.2-51.2-76.8-112-76.8-185.6 3.2-230.4 275.2-499.2 358.4-576 9.6-6.4 16-16 22.4-22.4 60.8-57.6 92.8-86.4 128-89.6 0 0 3.2 0 3.2 0s3.2 0 3.2 0c28.8 3.2 54.4 22.4 96 60.8 12.8 9.6 12.8 28.8 3.2 41.6s-28.8 12.8-41.6 3.2zM924.8 352h-92.8v92.8c0 16-12.8 28.8-28.8 28.8h-118.4c-16 0-28.8-12.8-28.8-28.8v-92.8h-92.8c-16 0-28.8-12.8-28.8-28.8v-118.4c0-16 12.8-28.8 28.8-28.8h92.8v-92.8c0-16 12.8-28.8 28.8-28.8h118.4c16 0 28.8 12.8 28.8 28.8v92.8h92.8c16 0 28.8 12.8 28.8 28.8v118.4c0 16-12.8 28.8-28.8 28.8zM896 236.8h-92.8c-16 0-28.8-12.8-28.8-28.8v-92.8h-57.6v92.8c0 16-12.8 28.8-28.8 28.8h-92.8v57.6h92.8c16 0 28.8 12.8 28.8 28.8v92.8h57.6v-92.8c0-16 12.8-28.8 28.8-28.8h92.8v-57.6z" />
<glyph unicode="&#xe909;" glyph-name="syringe" d="M723.2 99.2h-60.8v707.2c0 12.8-12.8 25.6-25.6 25.6h-102.4v102.4c3.2 12.8-9.6 25.6-22.4 25.6s-25.6-12.8-25.6-25.6v-102.4h-102.4c-12.8 0-25.6-12.8-25.6-25.6v-707.2h-57.6c-12.8 0-25.6-12.8-25.6-25.6s12.8-25.6 25.6-25.6h185.6v-64h-96c-12.8 0-25.6-12.8-25.6-25.6s12.8-25.6 25.6-25.6h121.6c0 0 0 0 0 0s0 0 0 0h121.6c12.8 0 25.6 12.8 25.6 25.6s-12.8 25.6-25.6 25.6h-96v64h185.6c12.8 0 25.6 12.8 25.6 25.6 0 16-12.8 25.6-25.6 25.6zM614.4 99.2h-102.4c0 0 0 0 0 0h-99.2v92.8h64c12.8 0 25.6 12.8 25.6 25.6s-12.8 25.6-25.6 25.6h-64v54.4h121.6c12.8 0 25.6 12.8 25.6 25.6s-12.8 25.6-25.6 25.6h-121.6v57.6h64c12.8 0 25.6 12.8 25.6 25.6s-12.8 25.6-25.6 25.6h-64v54.4h121.6c12.8 0 25.6 12.8 25.6 25.6s-12.8 25.6-25.6 25.6h-121.6v57.6h64c12.8 0 25.6 12.8 25.6 25.6s-12.8 25.6-25.6 25.6h-64v112h201.6v-684.8z" />
<glyph unicode="&#xe90a;" glyph-name="lungs" d="M451.2 400v-310.4c0-44.8-32-83.2-73.6-83.2h-169.6c-70.4 0-124.8 28.8-160 86.4-32 48-48 115.2-48 192 0 121.6 38.4 262.4 102.4 374.4 73.6 128 172.8 198.4 275.2 198.4 41.6 0 73.6-38.4 73.6-83.2v-83.2c0-16-12.8-28.8-28.8-28.8s-28.8 12.8-28.8 28.8v83.2c0 16-9.6 28.8-19.2 28.8-112 0-188.8-108.8-227.2-172.8-57.6-102.4-96-233.6-96-345.6 0-67.2 12.8-124.8 38.4-163.2 25.6-41.6 64-60.8 115.2-60.8h169.6c9.6 0 19.2 12.8 19.2 28.8v310.4c0 16 12.8 28.8 28.8 28.8s28.8-12.8 28.8-28.8zM921.6 659.2c-73.6 128-172.8 198.4-275.2 198.4-41.6 0-73.6-38.4-73.6-83.2v-86.4c0-16 12.8-28.8 28.8-28.8s28.8 12.8 28.8 28.8v86.4c0 16 9.6 28.8 19.2 28.8 112 0 188.8-108.8 227.2-172.8 57.6-102.4 96-233.6 96-345.6 0-67.2-12.8-124.8-38.4-163.2-25.6-41.6-64-60.8-115.2-60.8h-169.6c-9.6 0-19.2 12.8-19.2 28.8v313.6c0 16-12.8 28.8-28.8 28.8s-28.8-12.8-28.8-28.8v-313.6c0-44.8 32-83.2 73.6-83.2h169.6c70.4 0 124.8 28.8 160 86.4 32 48 48 115.2 48 192 0 124.8-38.4 262.4-102.4 374.4zM665.6 326.4c0-16 12.8-28.8 28.8-28.8s28.8 12.8 28.8 28.8v80l73.6-35.2c12.8-6.4 28.8 0 35.2 12.8s0 28.8-12.8 35.2l-105.6 51.2-169.6 182.4v208c0 16-12.8 28.8-28.8 28.8s-28.8-12.8-28.8-28.8v-204.8l-169.6-182.4-105.6-51.2c-12.8-6.4-19.2-22.4-12.8-35.2s22.4-19.2 35.2-12.8l73.6 35.2v-80c0-16 12.8-28.8 28.8-28.8s28.8 12.8 28.8 28.8v112l153.6 166.4 153.6-166.4v-115.2h-6.4z" />
<glyph unicode="&#xe90b;" glyph-name="book2" d="M355.2 444.8v-118.4c0-16 12.8-25.6 25.6-25.6h99.2v-99.2c0-16 12.8-25.6 25.6-25.6h118.4c16 0 25.6 12.8 25.6 25.6v99.2h99.2c16 0 25.6 12.8 25.6 25.6v118.4c0 16-12.8 25.6-25.6 25.6h-99.2v99.2c0 16-12.8 25.6-25.6 25.6h-118.4c-16 0-25.6-12.8-25.6-25.6v-99.2h-99.2c-16 0-25.6-9.6-25.6-25.6zM406.4 419.2h99.2c16 0 25.6 12.8 25.6 25.6v99.2h67.2v-99.2c0-16 12.8-25.6 25.6-25.6h99.2v-67.2h-99.2c-16 0-25.6-12.8-25.6-25.6v-99.2h-67.2v99.2c0 16-12.8 25.6-25.6 25.6h-99.2v67.2zM902.4 960h-780.8c-16 0-25.6-12.8-25.6-25.6v-972.8c0-12.8 9.6-25.6 25.6-25.6h780.8c16 0 25.6 12.8 25.6 25.6v972.8c0 12.8-9.6 25.6-25.6 25.6zM355.2 908.8h67.2v-115.2l-19.2 12.8c-3.2 3.2-9.6 6.4-16 6.4s-9.6 0-16-6.4l-19.2-12.8v115.2h3.2zM198.4-12.8h-51.2v921.6h51.2v-921.6zM876.8-12.8h-624v921.6h51.2v-166.4c0-9.6 6.4-19.2 12.8-22.4 9.6-3.2 19.2-3.2 28.8 3.2l44.8 32 44.8-32c9.6-6.4 19.2-6.4 28.8-3.2s12.8 12.8 12.8 22.4v166.4h400v-921.6z" />
<glyph unicode="&#xe90c;" glyph-name="clock2" d="M873.6 809.6c-96 96-224 150.4-361.6 150.4s-265.6-54.4-361.6-150.4c-96-96-150.4-224-150.4-361.6s54.4-265.6 150.4-361.6c96-96 224-150.4 361.6-150.4s265.6 54.4 361.6 150.4c96 96 150.4 224 150.4 361.6s-54.4 265.6-150.4 361.6zM512-19.2c-256 0-467.2 211.2-467.2 467.2s211.2 467.2 467.2 467.2 467.2-211.2 467.2-467.2-211.2-467.2-467.2-467.2zM512 867.2c-230.4 0-419.2-188.8-419.2-419.2s188.8-419.2 419.2-419.2c96 0 192 35.2 265.6 96 9.6 9.6 12.8 22.4 3.2 32s-22.4 12.8-32 3.2c-67.2-54.4-150.4-83.2-236.8-83.2-204.8-3.2-374.4 166.4-374.4 371.2s169.6 374.4 374.4 374.4c204.8 0 374.4-166.4 374.4-374.4 0-86.4-28.8-169.6-83.2-236.8-9.6-9.6-6.4-25.6 3.2-32 9.6-9.6 25.6-6.4 32 3.2 60.8 73.6 96 169.6 96 265.6-3.2 230.4-192 419.2-422.4 419.2zM592 444.8l102.4 102.4c12.8 12.8 19.2 25.6 19.2 41.6s-6.4 32-19.2 41.6c-22.4 22.4-60.8 22.4-86.4 0l-96-96-147.2 147.2c-12.8 12.8-25.6 19.2-41.6 19.2s-32-6.4-41.6-19.2c-12.8-12.8-19.2-25.6-19.2-41.6s6.4-32 19.2-41.6l150.4-150.4c0-12.8 3.2-25.6 9.6-35.2l-160-160c-9.6-9.6-9.6-22.4 0-32 3.2-3.2 9.6-6.4 16-6.4s12.8 3.2 16 6.4l160 160c12.8-6.4 25.6-9.6 38.4-9.6 44.8-3.2 80 28.8 80 73.6zM640 598.4c6.4 6.4 12.8 6.4 19.2 0 3.2-3.2 3.2-6.4 3.2-9.6s0-6.4-3.2-9.6l-83.2-83.2c-6.4 6.4-12.8 12.8-19.2 19.2l83.2 83.2zM310.4 636.8c0 3.2 0 6.4 3.2 9.6s6.4 3.2 9.6 3.2c3.2 0 6.4 0 9.6-3.2l131.2-131.2c-6.4-6.4-12.8-12.8-19.2-19.2l-131.2 131.2c-3.2 3.2-3.2 6.4-3.2 9.6zM512 412.8c-9.6 0-19.2 3.2-25.6 9.6 0 0 0 0 0 0s0 0 0 0c-6.4 6.4-9.6 16-9.6 25.6 0 19.2 16 35.2 35.2 35.2s35.2-16 35.2-35.2c0-19.2-16-35.2-35.2-35.2zM243.2 470.4h-35.2c-12.8 0-22.4-9.6-22.4-22.4s9.6-22.4 22.4-22.4h35.2c12.8 0 22.4 9.6 22.4 22.4s-9.6 22.4-22.4 22.4zM534.4 716.8v35.2c0 12.8-9.6 22.4-22.4 22.4s-22.4-9.6-22.4-22.4v-35.2c0-12.8 9.6-22.4 22.4-22.4s22.4 9.6 22.4 22.4zM838.4 448c0 12.8-9.6 22.4-22.4 22.4h-35.2c-12.8 0-22.4-9.6-22.4-22.4s9.6-22.4 22.4-22.4h35.2c12.8 0 22.4 9.6 22.4 22.4zM489.6 179.2v-35.2c0-12.8 9.6-22.4 22.4-22.4s22.4 9.6 22.4 22.4v35.2c0 12.8-9.6 22.4-22.4 22.4s-22.4-9.6-22.4-22.4z" />
<glyph unicode="&#xe90d;" glyph-name="microscope2" d="M867.2-16h-41.6v99.2c0 12.8-9.6 22.4-22.4 22.4h-76.8v80c48 32 89.6 73.6 118.4 124.8 32 54.4 48 118.4 48 182.4s-16 128-48 182.4c-25.6 48-64 86.4-108.8 118.4l9.6 16 6.4-3.2c3.2-3.2 9.6-3.2 12.8-3.2 6.4 0 16 3.2 19.2 9.6 6.4 9.6 6.4 25.6-6.4 32l-25.6 19.2c0 0 0 0 0 0l-108.8 76.8c0 0 0 0 0 0l-25.6 16c-9.6 6.4-25.6 6.4-32-6.4-6.4-9.6-6.4-25.6 6.4-32l6.4-3.2-44.8-67.2-6.4 3.2c-9.6 6.4-25.6 6.4-32-6.4-6.4-9.6-6.4-25.6 6.4-32l6.4-3.2-144-204.8c-3.2-6.4-6.4-12.8-3.2-19.2 0-6.4 3.2-12.8 9.6-16l108.8-76.8c3.2-3.2 9.6-3.2 12.8-3.2 0 0 3.2 0 3.2 0 6.4 0 12.8 3.2 16 9.6l108.8 156.8c54.4-35.2 86.4-96 86.4-163.2 0-41.6-12.8-80-35.2-112h-99.2c-12.8 0-22.4-9.6-22.4-22.4v-57.6c-12.8-3.2-25.6-3.2-38.4-3.2-60.8 0-118.4 28.8-156.8 76.8h128c12.8 0 22.4 9.6 22.4 22.4s-9.6 22.4-22.4 22.4h-345.6c-12.8 0-22.4-9.6-22.4-22.4s9.6-22.4 22.4-22.4h22.4c22.4-67.2 67.2-128 124.8-169.6 64-48 140.8-73.6 220.8-73.6 12.8 0 25.6 0 38.4 3.2v-25.6h-313.6c-12.8 0-22.4-9.6-22.4-22.4v-99.2h-44.8c-12.8 0-22.4-9.6-22.4-22.4 0-19.2 9.6-28.8 22.4-28.8h67.2c0 0 0 0 0 0h550.4c0 0 0 0 0 0h67.2c12.8 0 22.4 9.6 22.4 22.4s-9.6 25.6-22.4 25.6zM636.8 886.4l67.2-48-25.6-35.2c0 0 0 0 0 0l-22.4-32-70.4 48 51.2 67.2zM502.4 547.2l-70.4 48 131.2 185.6 70.4-48-131.2-185.6zM662.4 694.4l9.6 12.8 3.2-3.2c3.2-3.2 9.6-3.2 12.8-3.2 6.4 0 16 3.2 19.2 9.6 6.4 9.6 6.4 25.6-6.4 32l-6.4 3.2 9.6 12.8c86.4-57.6 137.6-156.8 137.6-262.4 0-96-44.8-188.8-121.6-249.6v105.6c28.8 41.6 44.8 89.6 44.8 140.8 3.2 83.2-35.2 156.8-102.4 201.6zM524.8 176c-131.2 0-246.4 80-294.4 198.4h83.2c19.2-35.2 48-64 80-86.4 38.4-25.6 83.2-38.4 131.2-38.4 12.8 0 25.6 0 38.4 3.2v-76.8c-12.8 0-25.6 0-38.4 0zM608 160v176h67.2v-230.4h-67.2v54.4zM272 60.8h505.6v-76.8h-505.6v76.8z" />
<glyph unicode="&#xe90e;" glyph-name="paciente" d="M985.6 332.8c12.8 0 25.6 9.6 25.6 25.6s-9.6 25.6-25.6 25.6h-537.6c6.4 28.8-6.4 57.6-41.6 73.6l-291.2 115.2c-28.8 12.8-57.6 9.6-76.8-9.6-19.2-16-28.8-41.6-22.4-67.2s25.6-48 54.4-57.6l70.4-22.4v-288h-96c-12.8 0-25.6-9.6-25.6-25.6s9.6-25.6 25.6-25.6h940.8c12.8 0 25.6 9.6 25.6 25.6s-12.8 25.6-25.6 25.6h-92.8v204.8h92.8zM86.4 483.2c-16 3.2-22.4 16-22.4 19.2 0 6.4 0 16 6.4 19.2 3.2 3.2 6.4 3.2 12.8 3.2s12.8-3.2 16-3.2l291.2-115.2c12.8-6.4 12.8-16 9.6-19.2-3.2-6.4-6.4-9.6-12.8-6.4l-300.8 102.4zM844.8 128h-656v268.8l182.4-60.8c6.4-3.2 12.8-3.2 19.2-3.2 0 0 3.2 0 3.2 0h451.2v-204.8zM105.6 604.8c57.6 0 105.6 48 105.6 105.6s-48 105.6-105.6 105.6-105.6-44.8-105.6-105.6c0-57.6 48-105.6 105.6-105.6zM105.6 768c32 0 57.6-25.6 57.6-57.6s-25.6-57.6-57.6-57.6-57.6 25.6-57.6 57.6 25.6 57.6 57.6 57.6zM1024 508.8v-60.8c0-12.8-9.6-25.6-25.6-25.6h-409.6c-3.2 0-6.4 0-9.6 3.2l-361.6 150.4c0 0-3.2 0-3.2 3.2-3.2 3.2-6.4 3.2-6.4 6.4-3.2 3.2-3.2 6.4-3.2 9.6s0 6.4 0 9.6c0 3.2 3.2 6.4 3.2 6.4 3.2 3.2 3.2 6.4 6.4 6.4 3.2 3.2 6.4 3.2 9.6 3.2s3.2 0 6.4 0l406.4-25.6c12.8 0 22.4-12.8 22.4-25.6s-12.8-22.4-25.6-22.4l-262.4 16 224-92.8h380.8v35.2c0 12.8 9.6 25.6 25.6 25.6s22.4-9.6 22.4-22.4z" />
<glyph unicode="&#xe90f;" glyph-name="arrow-right3" d="M1024 22.4v851.2c0 22.4-19.2 38.4-38.4 38.4h-358.4c-22.4 0-38.4-19.2-38.4-38.4 0-22.4 19.2-38.4 38.4-38.4h316.8v-774.4h-316.8c-22.4 0-38.4-19.2-38.4-38.4 0-22.4 19.2-38.4 38.4-38.4h355.2c22.4-3.2 41.6 16 41.6 38.4zM0 451.2c0-22.4 19.2-38.4 38.4-38.4h604.8l-233.6-252.8c-16-16-12.8-41.6 3.2-57.6s41.6-12.8 57.6 3.2l294.4 316.8c3.2 3.2 6.4 9.6 9.6 16 0 3.2 3.2 9.6 3.2 12.8 0 12.8-6.4 25.6-19.2 32l-288 313.6c-16 16-38.4 16-57.6 3.2-16-16-16-38.4-3.2-57.6l233.6-252.8h-604.8c-19.2 0-38.4-16-38.4-38.4z" />
<glyph unicode="&#xe910;" glyph-name="arrow-down3" d="M86.4-64h851.2c22.4 0 38.4 19.2 38.4 38.4v358.4c0 22.4-19.2 38.4-38.4 38.4-22.4 0-38.4-19.2-38.4-38.4v-316.8h-774.4v316.8c0 22.4-19.2 38.4-38.4 38.4-22.4 0-38.4-19.2-38.4-38.4v-355.2c-3.2-22.4 16-41.6 38.4-41.6zM515.2 960c-22.4 0-38.4-19.2-38.4-38.4v-604.8l-252.8 233.6c-16 16-41.6 12.8-57.6-3.2s-12.8-41.6 3.2-57.6l316.8-294.4c3.2-3.2 9.6-6.4 16-9.6 3.2 0 9.6-3.2 12.8-3.2 12.8 0 25.6 6.4 32 19.2l313.6 288c16 16 16 38.4 3.2 57.6-16 16-38.4 16-57.6 3.2l-252.8-233.6v604.8c0 19.2-16 38.4-38.4 38.4z" />
<glyph unicode="&#xe911;" glyph-name="arrow-left3" d="M0 873.6v-851.2c0-22.4 19.2-38.4 38.4-38.4h358.4c22.4 0 38.4 19.2 38.4 38.4 0 22.4-19.2 38.4-38.4 38.4h-316.8v774.4h316.8c22.4 0 38.4 19.2 38.4 38.4 0 22.4-19.2 38.4-38.4 38.4h-355.2c-22.4 3.2-41.6-16-41.6-38.4zM1024 444.8c0 22.4-19.2 38.4-38.4 38.4h-604.8l233.6 252.8c16 16 12.8 41.6-3.2 57.6s-41.6 12.8-57.6-3.2l-294.4-316.8c-3.2-3.2-6.4-9.6-9.6-16 0-3.2-3.2-9.6-3.2-12.8 0-12.8 6.4-25.6 19.2-32l288-313.6c16-16 38.4-16 57.6-3.2 16 16 16 38.4 3.2 57.6l-233.6 252.8h604.8c19.2 0 38.4 16 38.4 38.4z" />
<glyph unicode="&#xe912;" glyph-name="arrow-up3" d="M937.6 960h-851.2c-22.4 0-38.4-19.2-38.4-38.4v-358.4c0-22.4 19.2-38.4 38.4-38.4 22.4 0 38.4 19.2 38.4 38.4v316.8h774.4v-316.8c0-22.4 19.2-38.4 38.4-38.4 22.4 0 38.4 19.2 38.4 38.4v355.2c3.2 22.4-16 41.6-38.4 41.6zM508.8-64c22.4 0 38.4 19.2 38.4 38.4v604.8l252.8-233.6c16-16 41.6-12.8 57.6 3.2s12.8 41.6-3.2 57.6l-316.8 294.4c-3.2 3.2-9.6 6.4-16 9.6-3.2 0-9.6 3.2-12.8 3.2-12.8 0-25.6-6.4-32-19.2l-313.6-288c-16-16-16-38.4-3.2-57.6 16-16 38.4-16 57.6-3.2l252.8 233.6v-604.8c0-19.2 16-38.4 38.4-38.4z" />
<glyph unicode="&#xe913;" glyph-name="users" d="M889.6 374.4c25.6 22.4 44.8 54.4 44.8 92.8 0 64-51.2 118.4-108.8 118.4s-108.8-54.4-108.8-118.4c0-38.4 16-70.4 44.8-92.8-12.8-3.2-22.4-9.6-35.2-16-35.2 41.6-80 73.6-134.4 89.6 41.6 28.8 67.2 76.8 67.2 131.2 0 83.2-67.2 156.8-147.2 156.8-76.8 0-147.2-73.6-147.2-156.8 0-54.4 28.8-102.4 67.2-131.2-54.4-16-99.2-48-134.4-89.6-9.6 6.4-22.4 9.6-35.2 16 25.6 22.4 44.8 54.4 44.8 92.8 0 64-51.2 118.4-108.8 118.4s-108.8-54.4-108.8-118.4c0-38.4 16-70.4 44.8-92.8-76.8-28.8-134.4-102.4-134.4-192 0-9.6 9.6-19.2 19.2-19.2h988.8c9.6 0 19.2 9.6 19.2 19.2-3.2 89.6-60.8 163.2-137.6 192zM748.8 467.2c0 38.4 32 83.2 73.6 83.2s73.6-44.8 73.6-83.2c0-38.4-32-83.2-73.6-83.2s-73.6 44.8-73.6 83.2zM403.2 576c0 54.4 48 118.4 108.8 118.4 64 0 108.8-64 108.8-118.4s-48-118.4-108.8-118.4c-64 0-108.8 64-108.8 118.4zM128 467.2c0 38.4 32 83.2 73.6 83.2s73.6-44.8 73.6-83.2c0-38.4-32-83.2-73.6-83.2s-73.6 44.8-73.6 83.2zM201.6 348.8c28.8 0 54.4-6.4 76.8-19.2-22.4-38.4-38.4-80-41.6-128h-198.4c9.6 83.2 76.8 147.2 163.2 147.2zM275.2 201.6c9.6 121.6 112 220.8 236.8 220.8s227.2-96 236.8-220.8h-473.6zM784 201.6c-3.2 44.8-16 89.6-41.6 124.8 22.4 12.8 51.2 19.2 80 19.2 86.4 0 153.6-64 163.2-147.2h-201.6z" />
</font>
</defs>
</svg>
